Login
Username:
Password:
[Signup]
[Recover Account]


Browse Torrents

Poll


You must be logged in to view polls



Latest Torrents
Eighth Grade (2018...
- [Size: 737.38 MB]

Feral.2018.BRRip.A...
- [Size: 1.27 GB]

Feral.2018.BDRip.x...
- [Size: 416.95 MB]

Three.Identical.St...
- [Size: 633.80 MB]

Feral.2018.BRRip.X...
- [Size: 1.29 GB]


Torrent Details For "Skyscraper 2018 720p HDCAM x264 AAC [MW]"

Skyscraper 2018 720p HDCAM x264 AAC [MW]

Download this torrent | Magnet Download
Health:
Seeds: 1,571
Leechers: 1,687
Completed: 3,476 
Last Checked: 13-07-2018 04:20:24
External Torrent
Update Stats



Poster
No poster



Details
Name:Skyscraper 2018 720p HDCAM x264 AAC [MW]
Description:

 


General
Format                                   : Matroska
Format version                           : Version 4 / Version 2
File size                                : 801 MiB
Duration                                 : 1 h 24 min
Overall bit rate                         : 1 332 kb/s

Video
ID                                       : 1
Format                                   : AVC
Format/Info                              : Advanced Video Codec
Format profile                           : [email protected]
Format settings                          : CABAC / 4 Ref Frames
Format settings, CABAC                   : Yes
Format settings, RefFrames               : 4 frames
Codec ID                                 : V_MPEG4/ISO/AVC
Duration                                 : 1 h 24 min
Bit rate                                 : 1 200 kb/s
Width                                    : 1 178 pixels
Height                                   : 532 pixels
Display aspect ratio                     : 2.2:1
Frame rate mode                          : Constant
Frame rate                               : 29.970 (30000/1001) FPS
Color space                              : YUV
Chroma subsampling                       : 4:2:0
Bit depth                                : 8 bits
Scan type                                : Progressive
Bits/(Pixel*Frame)                       : 0.064
Stream size                              : 722 MiB (90%)
Writing library                          : x264 core 155 r2901 7d0ff22
Default                                  : Yes
Forced                                   : No

Audio
ID                                       : 2
Format                                   : AAC
Format/Info                              : Advanced Audio Codec
Format profile                           : LC
Codec ID                                 : A_AAC-2
Duration                                 : 1 h 24 min
Bit rate                                 : 128 kb/s
Channel(s)                               : 2 channels
Channel positions                        : Front: L R
Sampling rate                            : 48.0 kHz
Frame rate                               : 46.875 FPS (1024 SPF)
Compression mode                         : Lossy
Stream size                              : 76.9 MiB (10%)
Default                                  : Yes
Forced                                   : No


Click To Enlarge Image

 
 
 
 
 
 

Category:Movies > Pre-Releases
Lang:English  English
Total Size:800.62 MB
Info Hash:8ea23087f7c679cdb02b2baab4e986c5e24a9ae1
Added By:Freaky
Date Added:13-07-2018 00:00:20
Downloads:730

Ratings:Not Yet Rated (Log in to rate it)


Tracker:
udp://tracker.coppersurfer.tk:6969/announce


File List: 


Comments

No comments still posted

RSS
This would need editing with an rss feed of your choice.

Most Active
Game.of.Thrones.S0...
- [S: 23,701 - L: 88,824]

Ghost in the Shell...
- [S: 39,601 - L: 34,822]

WWE RAW 2017 07 17...
- [S: 40,961 - L: 24,392]

WWE Clash Of Champ...
- [S: 37,417 - L: 25,933]

The.Walking.Dead.S...
- [S: 34,645 - L: 26,501]

Game.of.Thrones.S0...
- [S: 27,540 - L: 33,311]

Jumanji Welcome to...
- [S: 36,671 - L: 24,109]

Game.of.Thrones.S0...
- [S: 39,595 - L: 20,705]

Guardians of the G...
- [S: 28,939 - L: 30,810]

Arrow.S06E11.HDTV....
- [S: 39,732 - L: 18,358]


Top
Copyright 2018 DownloadHD -|- Page Generated In 3.907620 secs.
-|- RSS Feed -|- Feed Info