Login
Username:
Password:
[Signup]
[Recover Account]


Browse Torrents

Poll


You must be logged in to view polls



Latest Torrents
Beyond the Clouds ...
- [Size: 1.02 GB]

TechSmith Snagit 2...
- [Size: 210.79 MB]

CCleaner (All Edit...
- [Size: 37.83 MB]

CorelCAD 2018.5 v1...
- [Size: 205.35 MB]

CorelCAD 2018.5 v1...
- [Size: 543.28 MB]


Torrent Details For "Battle Los Angeles(2011) Movie 720p WEBDL Esub DTS Audio(Hindi)-HDprintMovies"

Battle Los Angeles(2011) Movie 720p WEBDL Esub DTS Audio(Hindi)-HDprintMovies

Download this torrent | Magnet Download
Health:
Seeds: 18
Leechers: 32
Completed: 83 
Last Checked: 14-07-2018 03:46:45
External Torrent
Update Stats


Watch-Free-HD     Download

Poster


iMDB
Imdb Picture Title: Battle Los Angeles
Year: 2011
Runtime: 116 minutes
Votes: 162314
Rating: 5.8/10
Language: English, Ukrainian
Country: USA
All Genres: Action, Sci-Fi
Plot Outline: A squadron of U.S. Marines becomes the last line of defense against a global invasion.
Tagline: It's not war. It's survival.
Director: Jonathan Liebesman
Writing By: Christopher Bertolini,
Produced By: Jeffrey Chernov,David Greenblatt,B.L. Jurgens,Ori Marmur,Neal H. Moritz,Lisa Rodgers,
Music: Brian Tyler
Cast:
Aaron Eckhart as Ssgt. Michael Nantz
Ramon Rodriguez as 2nd Lt. William Martinez
Will Rothhaar as Cpl. Lee Imlay
Cory Hardrict as Cpl. Jason Lockett
Jim Parrack as LCpl. Peter Kerns
Gino Anthony Pesi as Cpl. Nick Stavrou
Ne-Yo as Cpl. Kevin Harris
James Hiroyuki Liao as LCpl. Steven Mottola
Bridget Moynahan as Michele
Noel Fisher as Pfc. Shaun Lenihan
Trailers:
Battle: Los Angeles -- Super Bowl Spot
Battle: Los Angeles - International Trailer
Battle: Los Angeles -- Trailer #2
Battle: Los Angeles -- Trailer #1
Battle: Los Angeles - Nothing Can Prepare You
Battle: Los Angeles -- International Trailer #2


Watch-Free-HD     Download

Details
Name:Battle Los Angeles(2011) Movie 720p WEBDL Esub DTS Audio(Hindi)-HDprintMovies
Description:




General
Unique ID                                : 141244764848478903991023845166468897408 (0x6A42C090E5C92186E04EC358D5791A80)
Complete name                            : Battle Los Angeles(2011) Movie 720p WEBDL Esub DTS Audio(Hindi)-HDprintMovies.mkv
Format                                   : Matroska
File size                                : 2.09 GiB
Duration                                 : 1 h 57 min
Overall bit rate                         : 2 545 kb/s

Video
ID                                       : 1
Format                                   : AVC
Format/Info                              : Advanced Video Codec
Duration                                 : 1 h 57 min
Maximum bit rate                         : 2 067 kb/s
Width                                    : 1 368 pixels
Height                                   : 760 pixels
Display aspect ratio                     : 16:9
Frame rate mode                          : Constant
Frame rate                               : 29.970 (30000/1001) FPS
Color space                              : YUV
Chroma subsampling                       : 4:2:0
Bit depth                                : 8 bits
Scan type                                : Progressive
Bits/(Pixel*Frame)                       : 0.064
Stream size                              : 1.63 GiB (78%)
Language                                 : English
Default                                  : Yes
Forced                                   : No

Audio
ID                                       : 2
Format                                   : DTS
Format/Info                              : Digital Theater Systems
Codec ID                                 : A_DTS
Duration                                 : 1 h 57 min
Bit rate mode                            : Constant
Bit rate                                 : 510 kb/s
Channel(s)                               : 2 channels
Channel positions                        : Front: L R
Sampling rate                            : 48.0 kHz
Frame rate                               : 46.875 FPS (1024 SPF)
Bit depth                                : 24 bits
Compression mode                         : Lossy
Stream size                              : 428 MiB (20%)
Language                                 : HINDI
Default                                  : Yes
Forced                                   : No














Category:Movies > Hollywood Dub
Lang:Hindi
Total Size:2.09 GB
Info Hash:f7049eadaeb1fe5030c82ff75320327f7a220ba6
Added By:suman142
Date Added:12-07-2018 15:42:55
Downloads:216

Download Torrent

Ratings:Not Yet Rated (Log in to rate it)


Tracker:
udp://tracker.coppersurfer.tk:6969/announce


File List: 


Comments

No comments still posted

Powered by 10 Hamsters v2-svn -|- Page Generated In 4.042311 secs.
-|- RSS Feed -|- Feed Info
Theme By: Nikkbu