Login
Username:
Password:
[Signup]
[Recover Account]


Browse Torrents

Poll


You must be logged in to view polls



Latest Torrents
Of.Gods.and.Warrio...
- [Size: 1.31 GB]

Poldark.2015.S04E0...
- [Size: 861.82 MB]

Andover (2018) 720...
- [Size: 731.97 MB]

Just.for.Laughs.Al...
- [Size: 421.89 MB]

The First Purge 20...
- [Size: 985.32 MB]


Torrent Details For "My Pure Land (2017) Urdu 720p HDRip x264 ESubs 900MB [MovCr]"

My Pure Land (2017) Urdu 720p HDRip x264 ESubs 900MB [MovCr]

Download this torrent | Magnet Download
Health:
Seeds: 116
Leechers: 299
Completed: 225 
Last Checked: 24-06-2018 10:03:06
External Torrent
Update Stats


Watch-Free-HD     Download

Poster


iMDB
Imdb Picture Title: My Pure Land
Year: 2017
Runtime: 92 minutes
Votes: 103
Rating: 6.5/10
Language: Urdu, English
Country: UK
All Genres: Drama, Thriller
Plot Outline: Three women defend their home against a group of armed men who want to take it forcibly from them.


Director: Sarmad Masud
Writing By: Sarmad Masud,
Produced By: Philip Bailey,Ace Bhatti,Russell Daly,Charles George,Jane George,Naomi George,Raj Kiran Hari,Bill Kenwright,Brian Lake,Ed Nassau Lake,Sarmad Masud,Richard Renwick Mbe,Farhad Moshiri,Cyrus Patel,Himesh Patel,Steve Potts,Jonathan Rae,Ananthan Sivayoganathan,Craig Tuohy,Alisher Usmanov,
Music: Tristan Cassel-Delavois
Cast:
Suhaee Abro as Nazo
Eman Malik as Saeda
Razia Malik as Waderi
Syed Tanveer Hussain as Baba
Atif Akhtar Bhatti as Sikander
Tayyab Ifzal as Zulfiqar
Ahsen Murad as Mehrban
Muhammed Safdar as Safdar
Muhammed Aslam as Aslam
Abdul Qadir as Driver


Watch-Free-HD     Download

Details
Name:My Pure Land (2017) Urdu 720p HDRip x264 ESubs 900MB [MovCr]
Description:
Visit Our Site  www.movcr.com

My Pure Land (2017) Urdu 720p HDRip x264 ESubs 900MB [MovCr]


 http://www.imdb.com/title/tt4489562/

 

General
Unique ID                   : 45942335506075301659774180219243947802 (0x22902C06013014AA98D4DF13E3B7671A)
Complete name               : www.MovCr.com - My Pure Land (2017) Urdu 720p HDRip x264 ESubs 900MB [MovCr].mkv
Format                      : Matroska
Format version              : Version 4 / Version 2
File size                   : 898 MiB
Duration                    : 1 h 37 min
Overall bit rate            : 1 282 kb/s
Movie name                  : www.MovCr.com
Encoded date                : UTC 2018-06-23 18:39:58
Writing application         : mkvmerge v23.0.0 ('The Bride Said No') 64-bit
Writing library             : libebml v1.3.6 + libmatroska v1.4.9

Video
ID                          : 1
Format                      : AVC
Format/Info                 : Advanced Video Codec
Format profile              : [email protected]
Format settings, CABAC      : Yes
Format settings, ReFrames   : 4 frames
Codec ID                    : V_MPEG4/ISO/AVC
Duration                    : 1 h 37 min
Bit rate                    : 900 kb/s
Width                       : 1 280 pixels
Height                      : 536 pixels
Display aspect ratio        : 2.40:1
Frame rate mode             : Constant
Frame rate                  : 24.000 FPS
Color space                 : YUV
Chroma subsampling          : 4:2:0
Bit depth                   : 8 bits
Scan type                   : Progressive
Bits/(Pixel*Frame)          : 0.055
Stream size                 : 627 MiB (70%)
Title                       : www.MovCr.com
Writing library             : x264 core 155 r2901 7d0ff22
Encoding settings           : cabac=1 / ref=3 / deblock=1:0:0 / analyse=0x3:0x113 / me=hex / subme=7 / psy=1 / psy_rd=1.00:0.00 / mixed_ref=1 / me_range=16 / chroma_me=1 / trellis=1 / 8x8dct=1 / cqm=0 / deadzone=21,11 / fast_pskip=1 / chroma_qp_offset=-2 / threads=12 / lookahead_threads=2 / sliced_threads=0 / nr=0 / decimate=1 / interlaced=0 / bluray_compat=0 / constrained_intra=0 / bframes=3 / b_pyramid=2 / b_adapt=1 / b_bias=0 / direct=1 / weightb=1 / open_gop=0 / weightp=2 / keyint=240 / keyint_min=24 / scenecut=40 / intra_refresh=0 / rc_lookahead=40 / rc=2pass / mbtree=1 / bitrate=900 / ratetol=1.0 / qcomp=0.60 / qpmin=0 / qpmax=69 / qpstep=4 / cplxblur=20.0 / qblur=0.5 / ip_ratio=1.40 / aq=1:1.00
Default                     : Yes
Forced                      : No

Audio
ID                          : 2
Format                      : AC-3
Format/Info                 : Audio Coding 3
Mode extension              : CM (complete main)
Format settings, Endianness : Big
Codec ID                    : A_AC3
Duration                    : 1 h 37 min
Bit rate mode               : Constant
Bit rate                    : 384 kb/s
Channel(s)                  : 6 channels
Channel positions           : Front: L C R, Side: L R, LFE
Sampling rate               : 48.0 kHz
Frame rate                  : 31.250 FPS (1536 spf)
Bit depth                   : 16 bits
Compression mode            : Lossy
Stream size                 : 269 MiB (30%)
Title                       : www.MovCr.com
Language                    : Urdu
Default                     : Yes
Forced                      : No

Text
ID                          : 3
Format                      : UTF-8
Codec ID                    : S_TEXT/UTF8
Codec ID/Info               : UTF-8 Plain Text
Duration                    : 1 h 30 min
Bit rate                    : 43 b/s
Count of elements           : 911
Stream size                 : 28.8 KiB (0%)
Title                       : www.MovCr.com
Language                    : English
Default                     : Yes
Forced                      : No



 
 
 
 
 
 
 
 
Category:Movies > HDRips
Lang:Urdu
Total Size:897.62 MB
Info Hash:b5abda0dfa6e0a72086ca8020216bcde30869289
Added By:Kingmaker
Date Added:23-06-2018 19:50:18
Downloads:134

Download Torrent

Ratings:Not Yet Rated (Log in to rate it)


Tracker:
http://tracker.flashtorrents.org:6969/announce

This Torrent also has backup trackers
URLSeedersLeechersCompleted
http://tracker.flashtorrents.org:6969/announce000
http://tracker.opentrackr.org:1337/announce000
http://share.camoe.cn:8080/announce000
http://t.nyaatracker.com:80/announce000
http://tracker.kicks-ass.net:80/announce000
http://tracker.tfile.co:80/announce000
http://torrentsmd.com:8080/announce000
http://tracker.kicks-ass.net:80/announce000


File List: 


Comments

No comments still posted

Powered by 10 Hamsters v2-svn -|- Page Generated In 1.731290 secs.
-|- RSS Feed -|- Feed Info
Theme By: Nikkbu