Login
Username:
Password:
[Signup]
[Recover Account]


Browse Torrents

Poll


You must be logged in to view polls



Latest Torrents
The Real Tevar - S...
- [Size: 1.21 GB]

Off.the.Map.2018.S...
- [Size: 1.08 GB]

Direct Ishq 2016 H...
- [Size: 982.48 MB]

The Miracle Season...
- [Size: 1.38 GB]

Bhagat Singh Di Ud...
- [Size: 976.45 MB]


Torrent Details For "Jio Dhan Dhana Dhan Live - Episode 11-20 [Uncut] - 480p WEBHD - DTOne"

Jio Dhan Dhana Dhan Live - Episode 11-20 [Uncut] - 480p WEBHD - DTOne

Download this torrent | Magnet Download
Health:
Seeds: 2
Leechers: 9
Completed: 34 
Last Checked: 14-06-2018 12:32:35
External Torrent
Update Stats


Watch-Free-HD     Download

Poster


iMDB
Imdb Picture Title: Lust Stories
Year: 2018
Language: Hindi
Country: India
All Genres: Drama
Plot Outline: Lust Stories is the sequel to 2013 movie Bombay Talkies presenting four short films by four of India's biggest directors exploring love, sex and relationships in modern India.


Director: Zoya Akhtar
Dibakar Banerjee
Karan Johar
Anurag Kashyap

Cast:
Bhumi Pednekar as
Radhika Apte as
Manisha Koirala as
Sanjay Kapoor as
Vicky Kaushal as
Kiara Advani as
Jaideep Ahlawat as
Neha Dhupia as
Randeep Jha as
Neil Bhoopalam as
Trailers:
Official Trailer


Watch-Free-HD     Download

Details
Name:Jio Dhan Dhana Dhan Live - Episode 11-20 [Uncut] - 480p WEBHD - DTOne
Description:


Jio Dhan Dhana Dhan Live - Episode 12-20 [Uncut] - 480p WEBHD - DTOne




General
Complete name                            : Episode 13.MP4
Format                                  : MPEG-4
Format profile                          : Base Media / Version 2
Codec ID                                : mp42 (isom/mp42)
File size                                : 504 MiB
Duration                                : 58 min 35 s
Overall bit rate mode                    : Variable
Overall bit rate                        : 1 202 kb/s
Encoded date                            : UTC 2018-05-28 13:03:08
Tagged date                              : UTC 2018-05-28 13:03:08
gsst                                    : 0
gstd                                    : 3515221

Video
ID                                      : 1
Format                                  : AVC
Format/Info                              : Advanced Video Codec
Format profile                          : [email protected]
Format settings                          : CABAC / 3 Ref Frames
Format settings, CABAC                  : Yes
Format settings, RefFrames              : 3 frames
Codec ID                                : avc1
Codec ID/Info                            : Advanced Video Coding
Duration                                : 58 min 35 s
Bit rate                                : 1 071 kb/s
Maximum bit rate                        : 2 917 kb/s
Width                                    : 848 pixels
Height                                  : 480 pixels
Display aspect ratio                    : 16:9
Frame rate mode                          : Constant
Frame rate                              : 25.000 FPS
Color space                              : YUV
Chroma subsampling                      : 4:2:0
Bit depth                                : 8 bits
Scan type                                : Progressive
Bits/(Pixel*Frame)                      : 0.105
Stream size                              : 449 MiB (89%)
Tagged date                              : UTC 2018-05-28 13:04:21
Color range                              : Limited
Color primaries                          : BT.709
Transfer characteristics                : BT.709
Matrix coefficients                      : BT.709

Audio
ID                                      : 2
Format                                  : AAC
Format/Info                              : Advanced Audio Codec
Format profile                          : LC
Codec ID                                : mp4a-40-2
Duration                                : 58 min 35 s
Bit rate mode                            : Variable
Bit rate                                : 128 kb/s
Maximum bit rate                        : 134 kb/s
Channel(s)                              : 2 channels
Channel positions                        : Front: L R
Sampling rate                            : 44.1 kHz
Frame rate                              : 43.066 FPS (1024 SPF)
Compression mode                        : Lossy
Stream size                              : 53.6 MiB (11%)
Title                                    : IsoMedia File Produced by Google, 5-11-2011
Encoded date                            : UTC 2018-05-28 13:03:57
Tagged date                              : UTC 2018-05-28 13:04:21

- Enjoy 480p WEBHD! DTOne Exclusive Release!

               

If you share this torrent anywhere, give credits to Lovepreet1 @ DTOne.

Category:TV > Indian
Lang:Hindi
Total Size:4.88 GB
Info Hash:d782075c72a1a9d4cf156a199ecd1c0d3a208c8d
Added By:Shrawankk
Date Added:07-06-2018 06:43:52
Downloads:142

Download Torrent

Ratings:Not Yet Rated (Log in to rate it)


Tracker:
http://tracker.dler.org:6969/announce

This Torrent also has backup trackers
URLSeedersLeechersCompleted
http://5.79.83.193:2710/announce134
http://tracker.desitorrents.tv:2087/n4TpU3jadJJRm44QsurhA7ee0Hj3ZIMx/announce2014
http://tracker.dler.org:6969/announce000
http://jiotorrents.net/announce.php?pk=b3f8f927ee1db7825e8fb8f05cf83bdb867b85ff000
http://tracker.mg64.net:6881/announce010


File List: 


Comments

No comments still posted

Powered by 10 Hamsters v2-svn -|- Page Generated In 2.158326 secs.
-|- RSS Feed -|- Feed Info
Theme By: Nikkbu