Login
Username:
Password:
[Signup]
[Recover Account]


Browse Torrents

Poll


You must be logged in to view polls



Latest Torrents
Aerial.Cities.S01E...
- [Size: 1.22 GB]

Aerial.Cities.S01E...
- [Size: 958.62 MB]

Genesis (2018) 720...
- [Size: 902.68 MB]

Marcia.Clark.Inves...
- [Size: 1.14 GB]

Atlanta.S02E08.HDT...
- [Size: 293.10 MB]


Torrent Details For "Sniper Reloaded 2011 720p BRRip x264 Dual Audio [Hindi 2.0 - English 2.0] ESub"

Sniper Reloaded 2011 720p BRRip x264 Dual Audio [Hindi 2.0 - English 2.0] ESub

Download this torrent | Magnet Download
Health:
Seeds: 69
Leechers: 312
Completed: 32 
Last Checked: 17-04-2018 13:35:28
External Torrent
Update Stats


Watch-Free-HD     Download

Poster
No poster


Watch-Free-HD     Download

Details
Name:Sniper Reloaded 2011 720p BRRip x264 Dual Audio [Hindi 2.0 - English 2.0] ESub
Description:

 


General
Format                                   : Matroska
Format version                           : Version 4 / Version 2
File size                                : 809 MiB
Duration                                 : 1 h 31 min
Overall bit rate                         : 1 238 kb/s

Video
ID                                       : 1
Format                                   : AVC
Format/Info                              : Advanced Video Codec
Format profile                           : [email protected]
Format settings                          : CABAC / 9 Ref Frames
Format settings, CABAC                   : Yes
Format settings, RefFrames               : 9 frames
Codec ID                                 : V_MPEG4/ISO/AVC
Duration                                 : 1 h 31 min
Bit rate                                 : 952 kb/s
Width                                    : 1 280 pixels
Height                                   : 688 pixels
Display aspect ratio                     : 1.85:1
Frame rate mode                          : Constant
Frame rate                               : 23.976 (24000/1001) FPS
Color space                              : YUV
Chroma subsampling                       : 4:2:0
Bit depth                                : 8 bits
Scan type                                : Progressive
Bits/(Pixel*Frame)                       : 0.045
Stream size                              : 621 MiB (77%)
Writing library                          : x264 core 125 r2200 999b753
Default                                  : Yes
Forced                                   : No

Audio #1
ID                                       : 2
Format                                   : AAC
Format/Info                              : Advanced Audio Codec
Format profile                           : LC
Codec ID                                 : A_AAC-2
Duration                                 : 1 h 31 min
Bit rate                                 : 192 kb/s
Channel(s)                               : 2 channels
Channel positions                        : Front: L R
Sampling rate                            : 48.0 kHz
Frame rate                               : 46.875 FPS (1024 SPF)
Compression mode                         : Lossy
Delay relative to video                  : 12 s 607 ms
Stream size                              : 123 MiB (15%)
Language                                 : Hindi
Default                                  : Yes
Forced                                   : No

Audio #2
ID                                       : 3
Format                                   : AAC
Format/Info                              : Advanced Audio Codec
Format profile                           : LC
Codec ID                                 : A_AAC-2
Duration                                 : 1 h 31 min
Bit rate                                 : 96.0 kb/s
Channel(s)                               : 2 channels
Channel positions                        : Front: L R
Sampling rate                            : 48.0 kHz
Frame rate                               : 46.875 FPS (1024 SPF)
Compression mode                         : Lossy
Stream size                              : 62.7 MiB (8%)
Language                                 : English
Default                                  : No
Forced                                   : No

Text
ID                                       : 4
Format                                   : UTF-8
Codec ID                                 : S_TEXT/UTF8
Codec ID/Info                            : UTF-8 Plain Text
Duration                                 : 1 h 27 min
Bit rate                                 : 53 b/s
Count of elements                        : 948
Stream size                              : 34.2 KiB (0%)
Default                                  : Yes
Forced                                   : No




             


Category:Movies > Hollywood Dub
Lang:Hindi
Total Size:809.20 MB
Info Hash:dc2f2e455f6f985027574cea7898db25a0bae162
Added By:Freaky
Date Added:17-04-2018 13:35:00
Downloads:270

Download Torrent

Ratings:Not Yet Rated (Log in to rate it)


Tracker:
udp://tracker.pirateparty.gr:6969/announce

This Torrent also has backup trackers
URLSeedersLeechersCompleted
http://tracker.vanitycore.co:6969/announce6252
http://public.popcorn-tracker.org:6969/announce6242


File List: 


Comments

No comments still posted

Powered by 10 Hamsters v2-svn -|- Page Generated In 0.878515 secs.
-|- RSS Feed -|- Feed Info
Theme By: Nikkbu