Login
Username:
Password:
[Signup]
[Recover Account]


Browse Torrents

Poll


You must be logged in to view polls



Latest Torrents
Power.2014.S05E04....
- [Size: 924.66 MB]

Power.2014.S05E04....
- [Size: 269.36 MB]

NASCAR.Xfinity.Ser...
- [Size: 3.50 GB]

Chappaquiddick.201...
- [Size: 774.93 MB]

18+.Tau.2018.720p....
- [Size: 1.20 GB]


Torrent Details For "Dawning Of The Dead 2017 HDRip x264 AAC [MW]"

Dawning Of The Dead 2017 HDRip x264 AAC [MW]

Download this torrent | Magnet Download
Health:
Seeds: 50
Leechers: 232
Completed: 112 
Last Checked: 17-04-2018 10:32:25
External Torrent
Update Stats


Watch-Free-HD     Download

Poster
No poster


Watch-Free-HD     Download

Details
Name:Dawning Of The Dead 2017 HDRip x264 AAC [MW]
Description:

 


General
Format                                   : Matroska
Format version                           : Version 4 / Version 2
File size                                : 789 MiB
Duration                                 : 1 h 43 min
Overall bit rate                         : 1 063 kb/s

Video
ID                                       : 1
Format                                   : AVC
Format/Info                              : Advanced Video Codec
Format profile                           : [email protected]
Format settings                          : CABAC / 4 Ref Frames
Format settings, CABAC                   : Yes
Format settings, RefFrames               : 4 frames
Codec ID                                 : V_MPEG4/ISO/AVC
Duration                                 : 1 h 43 min
Bit rate                                 : 1 000 kb/s
Width                                    : 720 pixels
Height                                   : 304 pixels
Display aspect ratio                     : 2.35:1
Frame rate mode                          : Constant
Frame rate                               : 23.976 (24000/1001) FPS
Color space                              : YUV
Chroma subsampling                       : 4:2:0
Bit depth                                : 8 bits
Scan type                                : Progressive
Bits/(Pixel*Frame)                       : 0.191
Stream size                              : 742 MiB (94%)
Writing library                          : x264 core 155 r2893 b00bcaf
Default                                  : Yes
Forced                                   : No

Audio
ID                                       : 2
Format                                   : AAC
Format/Info                              : Advanced Audio Codec
Format profile                           : HE-AAC / LC
Format settings                          : Explicit
Codec ID                                 : A_AAC-2
Duration                                 : 1 h 43 min
Bit rate                                 : 62.7 kb/s
Channel(s)                               : 2 channels
Channel positions                        : Front: L R
Sampling rate                            : 48.0 kHz / 24.0 kHz
Frame rate                               : 23.438 FPS (1024 SPF)
Compression mode                         : Lossy
Stream size                              : 46.5 MiB (6%)
Default                                  : Yes
Forced                                   : No




           

Category:Movies > HDRips
Lang:English  English
Total Size:789.47 MB
Info Hash:3413aa10f1ea812e727d4ef03abf0aba3d339e62
Added By:Freaky
Date Added:17-04-2018 10:30:51
Downloads:54

Download Torrent

Ratings:Not Yet Rated (Log in to rate it)


Tracker:
udp://tracker.pirateparty.gr:6969/announce

This Torrent also has backup trackers
URLSeedersLeechersCompleted
http://tracker.vanitycore.co:6969/announce4186
http://public.popcorn-tracker.org:6969/announce4176


File List: 


Comments

No comments still posted

Powered by 10 Hamsters v2-svn -|- Page Generated In 3.882543 secs.
-|- RSS Feed -|- Feed Info
Theme By: Nikkbu