Login
Username:
Password:
[Signup]
[Recover Account]


Browse Torrents

Poll


You must be logged in to view polls



Latest Torrents
Just.for.Laughs.Al...
- [Size: 399.74 MB]

Farzand (2018) Mar...
- [Size: 668.15 MB]

Jurassic World Fal...
- [Size: 7.29 GB]

Just.for.Laughs.Al...
- [Size: 381.70 MB]

Just.for.Laughs.Al...
- [Size: 427.34 MB]


Torrent Details For "18+Loco.Love.2017.720p.NF.WEBRip.DD5.1.x264.LLG"

18+Loco.Love.2017.720p.NF.WEBRip.DD5.1.x264.LLG

Download this torrent | Magnet Download
Health:
Seeds: 0
Leechers: 0
Completed:
Last Checked: 17-04-2018 06:10:04
External Torrent
Update Stats


Watch-Free-HD     Download

Poster
No poster


iMDB
Imdb Picture Title: Loco Love
Year: 2017
Votes: 63
Rating: 5.0/10
Language: English, Spanish
Country: Mexico
All Genres: Drama, Romance
Plot Outline: A young man and woman fall in love but are threatened to be torn apart by the tensions between their Latino and Caucasian communities in Arizona.
Director: Jose Luis Gutierrez Arias
Fernando Sariñana
Writing By: Diego Gutiérrez,
Produced By: Karina Blanco,
Cast:
Jaime Aymerich as Nacho
Melany Bennett as Marisol
Evan Deverian as Gavin
Natasha Esca as Christie
Alexa Mansour as Tete
Eivaut Rischen as Otis
Adan Rocha as Ramón
Stefanie Sherk as Trisha
Christopher Warner as Earl
Jordan Wilson as Luke


Watch-Free-HD     Download

Details
Name:18+Loco.Love.2017.720p.NF.WEBRip.DD5.1.x264.LLG
Description:




******************************Thumbnail:**********************

 

******************************Screenshots:********************

 Screenshot 1

 Screenshot 2

 Screenshot 3

 Screenshot 4

 Screenshot 5

 Screenshot 6

 Screenshot 7

 Screenshot 8

 Screenshot 9

 Screenshot 0

**************************************************************

Complete name                            : 18+Loco.Love.2017.720p.NF.WEBRip.DD5.1.x264.LLG.mp4
Format                                   : MPEG-4
Format profile                           : Base Media
Codec ID                                 : isom (isom/iso2/avc1/mp41)
File size                                : 1.61 GiB
Duration                                 : 1 h 42 min
Overall bit rate                         : 2 240 kb/s
Writing application                      : Lavf57.56.101

Video
ID                                       : 1
Format                                   : AVC
Format/Info                              : Advanced Video Codec
Format profile                           : [email protected]
Format settings                          : CABAC / 4 Ref Frames
Format settings, CABAC                   : Yes
Format settings, RefFrames               : 4 frames
Codec ID                                 : avc1
Codec ID/Info                            : Advanced Video Coding
Duration                                 : 1 h 42 min
Bit rate                                 : 2 000 kb/s
Width                                    : 1 280 pixels
Height                                   : 720 pixels
Display aspect ratio                     : 16:9
Frame rate mode                          : Constant
Frame rate                               : 23.976 (23976/1000) FPS
Color space                              : YUV
Chroma subsampling                       : 4:2:0
Bit depth                                : 8 bits
Scan type                                : Progressive
Bits/(Pixel*Frame)                       : 0.091
Stream size                              : 1.42 GiB (88%)

Audio
ID                                       : 2
Format                                   : AC-3
Format/Info                              : Audio Coding 3
Codec ID                                 : ac-3
Duration                                 : 1 h 42 min
Bit rate mode                            : Constant
Bit rate                                 : 256 kb/s
Channel(s)                               : 6 channels
Channel positions                        : Front: L C R, Side: L R, LFE
Sampling rate                            : 48.0 kHz
Frame rate                               : 31.250 FPS (1536 SPF)
Bit depth                                : 16 bits
Compression mode                         : Lossy
Stream size                              : 188 MiB (11%)
Language                                 : English
Service kind                             : Complete Main
Default                                  : Yes
Alternate group                          : 1

Category:Movies > WEB-HD
Lang:English  English
Total Size:1.62 GB
Info Hash:701af159af8909730eb9b88da21f19ce705005ef
Added By:LifeLongg
Date Added:17-04-2018 06:10:04
Downloads:202

Download Torrent

Ratings:Not Yet Rated (Log in to rate it)


Tracker:
udp://tracker.openbittorrent.com:80/announce


File List: 


Comments

No comments still posted

Powered by 10 Hamsters v2-svn -|- Page Generated In 0.482727 secs.
-|- RSS Feed -|- Feed Info
Theme By: Nikkbu