Login
Username:
Password:
[Signup]
[Recover Account]


Browse Torrents

Poll


You must be logged in to view polls



Latest Torrents
TMZ.on.TV.2018.08....
- [Size: 157.02 MB]

Shock.and.Awe.2017...
- [Size: 595.79 MB]

Shock.and.Awe.2017...
- [Size: 4.43 GB]

First.Reformed.201...
- [Size: 5.52 GB]

How.to.Talk.to.Gir...
- [Size: 782.29 MB]


Torrent Details For "Suicide.Squad.Hell.to.Pay.2018.BRrip.X264.LLG"

Suicide.Squad.Hell.to.Pay.2018.BRrip.X264.LLG

Download this torrent | Magnet Download
Health:
Seeds: 0
Leechers: 0
Completed:
Last Checked: 17-04-2018 04:22:31
External Torrent
Update Stats


Watch-Free-HD     Download

Poster
No poster


iMDB
Imdb Picture Title: Suicide Squad: Hell to Pay
Year: 2018
Runtime: 86 minutes
Votes: 1852
Rating: 7.2/10
Language: English
Country: USA
All Genres: Animation, Action
Plot Outline: Task Force X targets a powerful mystical object that they will risk their lives to steal.
Tagline: When the world needs the best, they call on the worst.
Director: Sam Liu
Writing By: Alan Burnett,John Ostrander,Len Wein,John Byrne,Denny O'Neil,Bob Haney,Gerry Conway,Lew Schwartz,Paul Dini,Bruce Timm,Gerry Conway,Al Milgrom,Grant Morrison,Frank Quitely,Andy Kubert,Steve Ditko,John Broome,Leo Duranona,Michael Green,Robert Kanigher,Bob Brown,Ross Andru,Jim Berry,Nick Cardy,Mike Johnson,Karl Kesel,Tom Grummett,David Vern Reed,Mahmud A. Asrar,
Produced By: Alan Burnett,Hyunjung Kim,Sam Liu,Amy McKenna,Sam Register,James Tucker,
Music: Robert J. Kral
Cast:
Christian Slater as Deadshot
Vanessa Williams as Amanda Waller
Billy Brown as Bronze Tiger
Kristin Bauer van Straten as Killer Frost
Gideon Emery as Copperhead
Liam McIntyre as Captain Boomerang
Tara Strong as Harley Quinn
David Boat as Harvey Dent / Two-Face / Thug #2
Trevor Devall as Punch / Thug #1
Dave Fennoy as Blockbuster / Tobias Whale / Black Manta / Police Officer
Trailers:
Official Trailer


Watch-Free-HD     Download

Details
Name:Suicide.Squad.Hell.to.Pay.2018.BRrip.X264.LLG
Description:




******************************Thumbnail:**********************

 

******************************Screenshots:********************

 Screenshot 1

 Screenshot 2

 Screenshot 3

 Screenshot 4

 Screenshot 5

 Screenshot 6

 Screenshot 7

 Screenshot 8

 Screenshot 9

 Screenshot 0

**************************************************************

Complete name                            : Suicide.Squad.Hell.to.Pay.2018.BRrip.X264.LLG.mp4
Format                                   : MPEG-4
Format profile                           : Base Media
Codec ID                                 : isom (isom/iso2/avc1/mp41)
File size                                : 921 MiB
Duration                                 : 1 h 26 min
Overall bit rate                         : 1 497 kb/s
Writing application                      : Lavf57.56.101

Video
ID                                       : 1
Format                                   : AVC
Format/Info                              : Advanced Video Codec
Format profile                           : [email protected]
Format settings                          : CABAC / 4 Ref Frames
Format settings, CABAC                   : Yes
Format settings, RefFrames               : 4 frames
Codec ID                                 : avc1
Codec ID/Info                            : Advanced Video Coding
Duration                                 : 1 h 26 min
Bit rate                                 : 1 200 kb/s
Width                                    : 720 pixels
Height                                   : 400 pixels
Display aspect ratio                     : 16:9
Frame rate mode                          : Constant
Frame rate                               : 23.976 (23976/1000) FPS
Color space                              : YUV
Chroma subsampling                       : 4:2:0
Bit depth                                : 8 bits
Scan type                                : Progressive
Bits/(Pixel*Frame)                       : 0.174
Stream size                              : 760 MiB (83%)

Audio
ID                                       : 2
Format                                   : AC-3
Format/Info                              : Audio Coding 3
Codec ID                                 : ac-3
Duration                                 : 1 h 26 min
Bit rate mode                            : Constant
Bit rate                                 : 256 kb/s
Channel(s)                               : 6 channels
Channel positions                        : Front: L C R, Side: L R, LFE
Sampling rate                            : 48.0 kHz
Frame rate                               : 31.250 FPS (1536 SPF)
Bit depth                                : 16 bits
Compression mode                         : Lossy
Stream size                              : 158 MiB (17%)
Service kind                             : Complete Main
Default                                  : Yes
Alternate group                          : 1

Category:Movies > DVDRips
Lang:English  English
Total Size:933.45 MB
Info Hash:d7ec0589f5eb65750e3245b0f2d657f7970307cc
Added By:LifeLongg
Date Added:17-04-2018 04:22:31
Downloads:41

Download Torrent

Ratings:Not Yet Rated (Log in to rate it)


Tracker:
udp://tracker.openbittorrent.com:80/announce


File List: 


Comments

No comments still posted

Copyright 2018 DownloadHD -|- Page Generated In 0.607351 secs.
-|- RSS Feed -|- Feed Info
Dev: DOMAINSHAPERS Web Services