Login
Username:
Password:
[Signup]
[Recover Account]


Browse Torrents

Poll


You must be logged in to view polls



Latest Torrents
Shopkins.Wild.2018...
- [Size: 1.33 GB]

Shopkins Wild.2018...
- [Size: 1.18 GB]

Shopkins Wild.2018...
- [Size: 2.86 GB]

BigBoss.ExtraDose....
- [Size: 758.87 MB]

BigBoss.ExtraDose....
- [Size: 1.07 GB]


Torrent Details For "Red.Sparrow.2018.HC.720p.HDRip.Eng.Audio.KorSub.With.Sample.LLG"

Red.Sparrow.2018.HC.720p.HDRip.Eng.Audio.KorSub.With.Sample.LLG

Download this torrent | Magnet Download
Health:
Seeds: 0
Leechers: 8
Completed:
Last Checked: 16-04-2018 16:01:35
External Torrent
Update Stats



Poster
No poster


iMDB
Imdb Picture Title: Red Sparrow
Year: 2018
Runtime: 139 minutes
Votes: 5470
Rating: 6.5/10
Language: English, Russian
Country: USA
All Genres: Mystery, Thriller
Plot Outline: Ballerina Dominika Egorova is recruited to 'Sparrow School,' a Russian intelligence service where she is forced to use her body as a weapon. Her first mission, targeting a C.I.A. agent, threatens to unravel the security of both nations.
Tagline: Seductive. Deceptive. Deadly.
Director: Francis Lawrence
Writing By: Justin Haythe,Jason Matthews,
Produced By: Garrett Basch,Peter Chernin,Ildiko Kemeny,Cameron MacConomy,Mary McLaglen,David Minkowski,David Ready,Jenno Topping,Steven Zaillian,
Music: James Newton Howard
Cast:
Jennifer Lawrence as Dominika Egorova
Joel Edgerton as Nate Nash
Matthias Schoenaerts as Vanya Egorov
Charlotte Rampling as Matron
Mary-Louise Parker as Stephanie Boucher
Ciarán Hinds as Zakharov
Joely Richardson as Nina Egorova
Bill Camp as Marty Gable
Jeremy Irons as General Korchnoi
Thekla Reuten as Marta
Trailers:
Official Trailer
Official Trailer



Details
Name:Red.Sparrow.2018.HC.720p.HDRip.Eng.Audio.KorSub.With.Sample.LLG
Description:




******************************Thumbnail:**********************

 

******************************Screenshots:********************

 Screenshot 1

 Screenshot 2

 Screenshot 3

 Screenshot 4

 Screenshot 5

 Screenshot 6

 Screenshot 7

 Screenshot 8

 Screenshot 9

 Screenshot 0

**************************************************************

Complete name                            : Red.Sparrow.2018.HC.720p.HDRip.Eng.Audio.KorSub.With.Sample.LLG.mp4
Format                                   : MPEG-4
Format profile                           : Base Media
Codec ID                                 : isom (isom/iso2/avc1/mp41)
File size                                : 1.37 GiB
Duration                                 : 2 h 15 min
Overall bit rate                         : 1 445 kb/s
Writing application                      : Lavf57.56.101

Video
ID                                       : 1
Format                                   : AVC
Format/Info                              : Advanced Video Codec
Format profile                           : [email protected]
Format settings                          : CABAC / 4 Ref Frames
Format settings, CABAC                   : Yes
Format settings, RefFrames               : 4 frames
Codec ID                                 : avc1
Codec ID/Info                            : Advanced Video Coding
Duration                                 : 2 h 15 min
Bit rate                                 : 1 200 kb/s
Width                                    : 1 904 pixels
Height                                   : 800 pixels
Display aspect ratio                     : 2.40:1
Frame rate mode                          : Constant
Frame rate                               : 29.970 (29970/1000) FPS
Color space                              : YUV
Chroma subsampling                       : 4:2:0
Bit depth                                : 8 bits
Scan type                                : Progressive
Bits/(Pixel*Frame)                       : 0.026
Stream size                              : 1.12 GiB (82%)

Audio
ID                                       : 2
Format                                   : AC-3
Format/Info                              : Audio Coding 3
Codec ID                                 : ac-3
Duration                                 : 2 h 15 min
Bit rate mode                            : Constant
Bit rate                                 : 256 kb/s
Channel(s)                               : 2 channels
Channel positions                        : Front: L R
Sampling rate                            : 48.0 kHz
Frame rate                               : 31.250 FPS (1536 SPF)
Bit depth                                : 16 bits
Compression mode                         : Lossy
Stream size                              : 249 MiB (18%)
Language                                 : English
Service kind                             : Complete Main
Default                                  : Yes
Alternate group                          : 1

Category:Movies > HDRips
Lang:English  English
Total Size:1.38 GB
Info Hash:d003d5a46c770768522d6988b4c6ead574163e49
Added By:LifeLongg
Date Added:16-04-2018 15:42:29
Downloads:69

Ratings:Not Yet Rated (Log in to rate it)


Tracker:
udp://tracker.openbittorrent.com:80/announce


File List: 


Comments

No comments still posted

RSS
This would need editing with an rss feed of your choice.

Latest Posters
Itihaas(1997) Movie 720p x264 AAC Audio-Encoded By HDprintMovies / Movies - Bollywood
Welcome to New York (2018) Hindi Pre DVDScrRip x264 AAC 400MB MKV [Exclusive] / Movies - Bollywood
The Test Case Altbalaji Exclusive / TV - Indian
Lahoriye (2017) Punjabi 720p HDRip x264 AAC 2.0 Esubs / Movies - Punjabi
The Message (1977) BRrip 720p x264 Dual Audio [Eng-Urdu] ESubs / Other - Religious
Afonso Padilha- Não Tá Compensado Ser Adulto / Movies - WEB-HD
Annabelle Creation 2017 1080p HC HDRip-x264-AC3 5.1-Zi$t-WWRG / Movies - HDRips
Annabelle Creation 2017 720p HC HDRip-x264-AC3 5.1-Zi$t-WWRG / Movies - HDRips
Mangal Pandey The Rising (2005) 720p HDRip-H264-AC3 5.1-Zi$t-WWRG / Movies - Bollywood
Transformers The Last Knight 2017 720p BluRay-x264-Zi$t-WWRG / Movies - 720P Bluray
Louis Armstrong meets Oscar Peterson [Flac][TntVillage] / Music - FLAC
Foo Fighters - Concrete and Gold (2017) (Mp3 320kbps) [Hunter] / Music - MP3
VA - Megahits 2017 3 (2017) (Mp3 320kbps) [Hunter] / Music - MP3
Prophets Of Rage - Prophets Of Rage (2017) (Mp3 320kbps) [Hunter] / Music - MP3
VA - Megahits 2017 2 (2017) (Mp3 320kbps) [Hunter] / Music - MP3
Anna Madsen - Whisper (2017) (Mp3 320kbps) [Hunter] / Music - MP3
VA - 60s Beat And Pop Hits (2017) (Mp3 320kbps) [Hunter] / Music - MP3
VA - Stars Of American Anthems (3CD) (2017) (Mp3 320kbps) [Hunter] / Music - MP3
Dyscarnate - With All Their Might (2017) (Mp3 320kbps) [Hunter] / Music - MP3
Circa Survive - The Amulet (2017) (Mp3 320kbps) [Hunter] / Music - MP3
Black Country Communion - BCCIV (2017) (Mp3 320kbps) [Hunter] / Music - MP3
Madonna - Rebel Heart Tour (2017) (Mp3 320kbps) [Hunter] / Music - MP3
Billboard Hot 100 Singles Chart (16th Sep 2017) (Mp3 320kbps) [Hunter] / Music - MP3
VA - Insecure (Music from the HBO Original Series), Season 2 (2017) (Mp3 320kbps) [Hunter] / Music - MP3
VA - Twin Peaks (Limited Event Series Soundtrack) (2017) (Mp3 320kbps) [Hunter] / Music - MP3

Most Active
Game.of.Thrones.S0...
- [S: 23,701 - L: 88,824]

Ghost in the Shell...
- [S: 39,601 - L: 34,822]

WWE RAW 2017 07 17...
- [S: 40,961 - L: 24,392]

WWE Clash Of Champ...
- [S: 37,417 - L: 25,933]

The.Walking.Dead.S...
- [S: 34,645 - L: 26,501]

Game.of.Thrones.S0...
- [S: 27,540 - L: 33,311]

Jumanji Welcome to...
- [S: 36,671 - L: 24,109]

Game.of.Thrones.S0...
- [S: 39,595 - L: 20,705]

Guardians of the G...
- [S: 28,939 - L: 30,810]

Arrow.S06E11.HDTV....
- [S: 39,732 - L: 18,358]


Top
Copyright 2018 DownloadHD -|- Page Generated In 0.628747 secs.
-|- RSS Feed -|- Feed Info