Login
Username:
Password:
[Signup]
[Recover Account]


Browse Torrents

Poll


You must be logged in to view polls



Latest Torrents
Aerial.Cities.S01E...
- [Size: 1.22 GB]

Aerial.Cities.S01E...
- [Size: 958.62 MB]

Genesis (2018) 720...
- [Size: 902.68 MB]

Marcia.Clark.Inves...
- [Size: 1.14 GB]

Atlanta.S02E08.HDT...
- [Size: 293.10 MB]


Torrent Details For "Hum Saath-Saath Hain (1999) Movie 720p AVC HDrip AAC Audio-(Suman142)"

Hum Saath-Saath Hain (1999) Movie 720p AVC HDrip AAC Audio-(Suman142)

Download this torrent | Magnet Download
Health:
Seeds: 22
Leechers: 43
Completed: 46 
Last Checked: 18-04-2018 18:55:12
External Torrent
Update Stats


Watch-Free-HD     Download

Poster


iMDB
Imdb Picture Title: Hum Saath-Saath Hain: We Stand United
Year: 1999
Runtime: 177 minutes
Votes: 4945
Rating: 6.2/10
Language: Hindi
Country: India
All Genres: Musical, Drama, Family
Plot Outline: Ramkishen and Mamta have three sons Vivek , Prem and Vinod and a daughter Sangeeta. This family is part of a joint family whose close knit bond is challenged by a misunderstanding.
Director: Sooraj R. Barjatya
Writing By: Sooraj R. Barjatya,Sooraj R. Barjatya,Sooraj R. Barjatya,
Produced By: Ajit Kumar Barjatya,Kamal Kumar Barjatya,Rajat A. Barjatya,Rajkumar Barjatya,Sooraj R. Barjatya,
Music: Vijay Patil
Cast:
Salman Khan as Prem
Karisma Kapoor as Sapna
Saif Ali Khan as Vinod
Tabu as Sadhana
Sonali Bendre as Preeti
Mohnish Bahl as Vivek
Mahesh Thakur as Anand
Neelam Kothari as Sangeeta
Alok Nath as Ramkishen
Satish Shah as Pritam


Watch-Free-HD     Download

Details
Name:Hum Saath-Saath Hain (1999) Movie 720p AVC HDrip AAC Audio-(Suman142)
Description:


General
Complete name                            : Hum Saath-Saath Hain (1999) Movie 720p AVC HDrip AAC Audio-(Suman142).mp4
Format                                   : dash
Codec ID                                 : dash (iso6/mp41)
File size                                : 2.90 GiB
Duration                                 : 2 h 56 min
Overall bit rate                         : 2 351 kb/s
Encoded date                             : UTC 2018-04-10 03:01:20
Tagged date                              : UTC 2018-04-10 03:01:20

Video
ID                                       : 2
Format                                   : AVC
Format/Info                              : Advanced Video Codec
Format profile                           : [email protected]
Format settings                          : 1 Ref Frames
Format settings, CABAC                   : No
Format settings, RefFrames               : 1 frame
Format settings, GOP                     : M=1, N=12
Codec ID                                 : avc1
Codec ID/Info                            : Advanced Video Coding
Duration                                 : 2 h 56 min
Bit rate                                 : 2 253 kb/s
Width                                    : 1 280 pixels
Height                                   : 720 pixels
Display aspect ratio                     : 16:9
Frame rate mode                          : Constant
Frame rate                               : 23.976 (23976/1000) FPS
Color space                              : YUV
Chroma subsampling                       : 4:2:0
Bit depth                                : 8 bits
Scan type                                : Progressive
Bits/(Pixel*Frame)                       : 0.102
Stream size                              : 2.77 GiB (96%)
Encoded date                             : UTC 2018-04-10 03:01:20
Tagged date                              : UTC 2018-04-10 03:01:20

Audio
ID                                       : 1
Format                                   : AAC
Format/Info                              : Advanced Audio Codec
Format profile                           : HE-AAC / LC
Format settings                          : Implicit
Codec ID                                 : mp4a-40-2
Duration                                 : 2 h 56 min
Bit rate                                 : 96.0 kb/s
Channel(s)                               : 2 channels
Channel positions                        : Front: L R
Sampling rate                            : 48.0 kHz / 24.0 kHz
Frame rate                               : 23.438 FPS (1024 SPF)
Compression mode                         : Lossy
Stream size                              : 119 MiB (4%)
Encoded date                             : UTC 2018-04-10 03:01:20
Tagged date                              : UTC 2018-04-10 03:01:20



















Category:Movies > Bollywood
Lang:Hindi
Total Size:2.90 GB
Info Hash:1ea76627c38a087103b99039cbb0b91cab97ab54
Added By:suman142
Date Added:16-04-2018 05:05:14
Downloads:287

Download Torrent

Ratings:Not Yet Rated (Log in to rate it)


Tracker:
udp://tracker.coppersurfer.tk:6969/announce


File List: 


Comments

<< Previous      Next >>
1 - 1

[Report] Posted: 16-04-2018 at 18:01:00
salmanzahid



Uploaded: 0.00 B
Downloaded: 0.00 B
Ratio: ---

thanks alot for this movie, can u please upload main prem ki diwani hoon in hd a complete version, i search it everywhere but its not in hd and secondly its incomplete the valentine day party scene, sanjana i love u song and many other scenes were deleted, please upload it, its a humble request the full movie duration 3hours,17minutes something

1 - 1
<< Previous      Next >>


Powered by 10 Hamsters v2-svn -|- Page Generated In 2.816043 secs.
-|- RSS Feed -|- Feed Info
Theme By: Nikkbu