Login
Username:
Password:
[Signup]
[Recover Account]


Browse Torrents

Poll


You must be logged in to view polls



Latest Torrents
Early Man 2018 108...
- [Size: 1.26 GB]

Peter Rabbit 2018 ...
- [Size: 1.67 GB]

The Debt Collector...
- [Size: 1.40 GB]

The Debt Collector...
- [Size: 699.82 MB]

Hens.Night.2018..H...
- [Size: 1.14 GB]


Torrent Details For "Red Sparrow (2018) English 720p HC HDRip 1GB @ KatMaster"

Red Sparrow (2018) English 720p HC HDRip 1GB @ KatMaster

Download this torrent | Magnet Download
Health:
Seeds: 30
Leechers: 231
Completed: 18 
Last Checked: 15-04-2018 19:36:23
External Torrent
Update Stats


Watch-Free-HD     Download

Poster


iMDB
Imdb Picture Title: Red Sparrow
Year: 2018
Runtime: 139 minutes
Votes: 5470
Rating: 6.5/10
Language: English, Russian
Country: USA
All Genres: Mystery, Thriller
Plot Outline: Ballerina Dominika Egorova is recruited to 'Sparrow School,' a Russian intelligence service where she is forced to use her body as a weapon. Her first mission, targeting a C.I.A. agent, threatens to unravel the security of both nations.
Tagline: Seductive. Deceptive. Deadly.
Director: Francis Lawrence
Writing By: Justin Haythe,Jason Matthews,
Produced By: Garrett Basch,Peter Chernin,Ildiko Kemeny,Cameron MacConomy,Mary McLaglen,David Minkowski,David Ready,Jenno Topping,Steven Zaillian,
Music: James Newton Howard
Cast:
Jennifer Lawrence as Dominika Egorova
Joel Edgerton as Nate Nash
Matthias Schoenaerts as Vanya Egorov
Charlotte Rampling as Matron
Mary-Louise Parker as Stephanie Boucher
Ciarán Hinds as Zakharov
Joely Richardson as Nina Egorova
Bill Camp as Marty Gable
Jeremy Irons as General Korchnoi
Thekla Reuten as Marta
Trailers:
Official Trailer
Official Trailer


Watch-Free-HD     Download

Details
Name:Red Sparrow (2018) English 720p HC HDRip 1GB @ KatMaster
Description:
[code][FORMAT]:…………………….[ Matroska
[ENCODER]:…………..[ KatMaster
[THANKS TO]:…………………..[ EVO[/code]


Movie Info:

Genres: Mystery, Thriller
Director: Francis Lawrence
Writers: Justin Haythe, Jason Matthews
Stars: Jennifer Lawrence, Joel Edgerton, Matthias Schoenaerts
IMDb: http://www.imdb.com/title/tt2873282/
Language: English

Video
ID                          : 1
Format                      : AVC
Format/Info                 : Advanced Video Codec
Format profile              : [email protected]
Format settings             : CABAC / 4 Ref Frames
Format settings, CABAC      : Yes
Format settings, ReFrames   : 4 frames
Codec ID                    : V_MPEG4/ISO/AVC
Duration                    : 2 h 15 min
Bit rate                    : 1 000 kb/s
Width                       : 1 280 pixels
Height                      : 536 pixels
Display aspect ratio        : 2.40:1
Frame rate mode             : Constant
Frame rate                  : 23.976 (24000/1001) FPS
Color space                 : YUV
Chroma subsampling          : 4:2:0
Bit depth                   : 8 bits
Scan type                   : Progressive
Bits/(Pixel*Frame)          : 0.061
Stream size                 : 956 MiB (88%)

Audio
ID                          : 2
Format                      : AAC
Format/Info                 : Advanced Audio Codec
Format profile              : LC
Codec ID                    : A_AAC-2
Duration                    : 2 h 15 min
Bit rate                    : 128 kb/s
Channel(s)                  : 2 channels
Channel positions           : Front: L R
Sampling rate               : 48.0 kHz
Frame rate                  : 46.875 FPS (1024 SPF)
Compression mode            : Lossy
Delay relative to video     : -21 ms
Stream size                 : 124 MiB (11%)


Screenshots:






Category:Movies > HDRips
Lang:Unknown/NA
Total Size:1.06 GB
Info Hash:c06ca2bb07e05c4bf2536190f51e17a0e7f440f4
Added By:KatMaster
Date Added:15-04-2018 18:52:25
Downloads:57

Download Torrent

Ratings:Not Yet Rated (Log in to rate it)


Tracker:
udp://tracker.coppersurfer.tk:6969/announce


File List: 


Comments

No comments still posted

Powered by 10 Hamsters v2-svn -|- Page Generated In 0.980492 secs.
-|- RSS Feed -|- Feed Info
Theme By: Nikkbu