Login
Username:
Password:
[Signup]
[Recover Account]


Browse Torrents

Poll


You must be logged in to view polls



Latest Torrents
Aerial.Cities.S01E...
- [Size: 1.22 GB]

Aerial.Cities.S01E...
- [Size: 958.62 MB]

Genesis (2018) 720...
- [Size: 902.68 MB]

Marcia.Clark.Inves...
- [Size: 1.14 GB]

Atlanta.S02E08.HDT...
- [Size: 293.10 MB]


Torrent Details For "Broken City 2013 720p BluRay x264 Dual Audio [Hindi 2.0 - English 2.0] ESub [MW]"

Broken City 2013 720p BluRay x264 Dual Audio [Hindi 2.0 - English 2.0] ESub [MW]

Download this torrent | Magnet Download
Health:
Seeds: 73
Leechers: 376
Completed: 55 
Last Checked: 15-04-2018 14:54:55
External Torrent
Update Stats


Watch-Free-HD     Download

Poster
No poster


Watch-Free-HD     Download

Details
Name:Broken City 2013 720p BluRay x264 Dual Audio [Hindi 2.0 - English 2.0] ESub [MW]
Description:

 

General
Format                                   : Matroska
Format version                           : Version 4 / Version 2
File size                                : 948 MiB
Duration                                 : 1 h 48 min
Overall bit rate                         : 1 220 kb/s

Video
ID                                       : 1
Format                                   : AVC
Format/Info                              : Advanced Video Codec
Format profile                           : [email protected]
Format settings                          : CABAC / 12 Ref Frames
Format settings, CABAC                   : Yes
Format settings, RefFrames               : 12 frames
Codec ID                                 : V_MPEG4/ISO/AVC
Duration                                 : 1 h 48 min
Bit rate                                 : 994 kb/s
Width                                    : 1 280 pixels
Height                                   : 528 pixels
Display aspect ratio                     : 2.40:1
Frame rate mode                          : Constant
Frame rate                               : 23.976 (24000/1001) FPS
Color space                              : YUV
Chroma subsampling                       : 4:2:0
Bit depth                                : 8 bits
Scan type                                : Progressive
Bits/(Pixel*Frame)                       : 0.061
Stream size                              : 772 MiB (81%)
Writing library                          : x264 core 130 r2273 b3065e6
Default                                  : Yes
Forced                                   : No

Audio #1
ID                                       : 2
Format                                   : AAC
Format/Info                              : Advanced Audio Codec
Format profile                           : LC
Codec ID                                 : A_AAC-2
Duration                                 : 1 h 48 min
Bit rate                                 : 128 kb/s
Channel(s)                               : 2 channels
Channel positions                        : Front: L R
Sampling rate                            : 48.0 kHz
Frame rate                               : 46.875 FPS (1024 SPF)
Compression mode                         : Lossy
Stream size                              : 99.5 MiB (10%)
Language                                 : Hindi
Default                                  : Yes
Forced                                   : No

Audio #2
ID                                       : 3
Format                                   : AAC
Format/Info                              : Advanced Audio Codec
Format profile                           : LC
Codec ID                                 : A_AAC-2
Duration                                 : 1 h 48 min
Bit rate                                 : 96.0 kb/s
Channel(s)                               : 2 channels
Channel positions                        : Front: L R
Sampling rate                            : 48.0 kHz
Frame rate                               : 46.875 FPS (1024 SPF)
Compression mode                         : Lossy
Stream size                              : 74.6 MiB (8%)
Language                                 : English
Default                                  : No
Forced                                   : No

Text
ID                                       : 4
Format                                   : UTF-8
Codec ID                                 : S_TEXT/UTF8
Codec ID/Info                            : UTF-8 Plain Text
Duration                                 : 1 h 42 min
Bit rate                                 : 96 b/s
Count of elements                        : 1624
Stream size                              : 72.1 KiB (0%)
Default                                  : Yes
Forced                                   : No





             

Category:Movies > Hollywood Dub
Lang:Hindi
Total Size:948.18 MB
Info Hash:b8989e809783f23c360062138bebc1dddcc68d93
Added By:Freaky
Date Added:15-04-2018 14:54:03
Downloads:134

Download Torrent

Ratings:Not Yet Rated (Log in to rate it)


Tracker:
udp://tracker.pirateparty.gr:6969/announce

This Torrent also has backup trackers
URLSeedersLeechersCompleted
http://tracker.vanitycore.co:6969/announce5313
http://public.popcorn-tracker.org:6969/announce6293


File List: 


Comments

No comments still posted

Powered by 10 Hamsters v2-svn -|- Page Generated In 3.167059 secs.
-|- RSS Feed -|- Feed Info
Theme By: Nikkbu