Login
Username:
Password:
[Signup]
[Recover Account]


Browse Torrents

Poll


You must be logged in to view polls



Latest Torrents
Auslogics BoostSpe...
- [Size: 20.45 MB]

Audials One 2018.1...
- [Size: 140.83 MB]

Atomix VirtualDJ 8...
- [Size: 35.44 MB]

Apowersoft Video E...
- [Size: 39.62 MB]

Any Video Converte...
- [Size: 46.92 MB]


Torrent Details For "Death Wish (2018) Hindi Dubbed HD TSRip x264 Dual Audio AAC - 800MB - MovCr"

Death Wish (2018) Hindi Dubbed HD TSRip x264 Dual Audio AAC - 800MB - MovCr

Download this torrent | Magnet Download
Health:
Seeds: 31
Leechers: 338
Completed:
Last Checked: 14-03-2018 18:36:38
External Torrent
Update Stats


Watch-Free-HD     Download

Poster


iMDB
Imdb Picture Title: Death Wish
Year: 2018
Runtime: 107 minutes
Votes: 4598
Rating: 6.7/10
Language: English
Country: USA
All Genres: Action, Crime, Drama, Thriller
Plot Outline: Dr. Paul Kersey is an experienced trauma surgeon, a man who has spent his life saving lives. After an attack on his family, Paul embarks on his own mission for justice.
Tagline: They came for his family. Now he's coming for them.
Director: Eli Roth
Writing By: Joe Carnahan,Brian Garfield,Wendell Mayes,
Produced By: Roger Birnbaum,Stephen J. Eads,Ilona Herzberg,Irene Litinsky,
Music: Ludwig Göransson
Cast:
Bruce Willis as Paul Kersey
Vincent D'Onofrio as Frank Kersey
Elisabeth Shue as Lucy Kersey
Camila Morrone as Jordan Kersey
Dean Norris as Detective Kevin Raines
Beau Knapp as Knox
Kimberly Elise as Detective Leonore Jackson
Len Cariou as Ben
Jack Kesy as The Fish
Ronnie Gene Blevins as Joe
Trailers:
Grindhouse Red Band Trailer
Death Wish
Trailer #2
Official Trailer


Watch-Free-HD     Download

Details
Name:Death Wish (2018) Hindi Dubbed HD TSRip x264 Dual Audio AAC - 800MB - MovCr
Description:
Death Wish (2018) Hindi Dubbed HD_TSRip  x264 Dual_Audio AAC - 800MB - MovCr

 http://www.imdb.com/title/tt1137450/

 
General
Complete name                            : www.movcr.com - Death Wish (2018) Hindi Dubbed HD_TSRip  x264 Dual_Audio AAC - 800MB - MovCr\www.movcr.com - Death Wish (2018) Hindi(Cleaned) Dubbed HD_TSRip x264 Dual_Audio AAC - 800MB - MovCr.mkv
Format                                   : Matroska
Format version                           : Version 4 / Version 2
File size                                : 790 MiB
Duration                                 : 1 h 39 min
Overall bit rate                         : 1 108 kb/s
Movie name                               : www.movcr.com
Encoded date                             : UTC 2018-03-15 07:31:32
Writing application                      : mkvmerge v20.0.0 ('I Am The Sun') 64-bit
Writing library                          : libebml v1.3.5 + libmatroska v1.4.8

Video
ID                                       : 1
Format                                   : AVC
Format/Info                              : Advanced Video Codec
Format profile                           : [email protected]
Format settings                          : CABAC / 2 Ref Frames
Format settings, CABAC                   : Yes
Format settings, RefFrames               : 2 frames
Format settings, GOP                     : M=1, N=12
Codec ID                                 : V_MPEG4/ISO/AVC
Duration                                 : 1 h 39 min
Bit rate mode                            : Constant
Bit rate                                 : 884 kb/s
Width                                    : 720 pixels
Height                                   : 304 pixels
Display aspect ratio                     : 2.35:1
Frame rate mode                          : Constant
Frame rate                               : 29.970 (30000/1001) FPS
Color space                              : YUV
Chroma subsampling                       : 4:2:0
Bit depth                                : 8 bits
Scan type                                : Progressive
Bits/(Pixel*Frame)                       : 0.135
Stream size                              : 627 MiB (79%)
Title                                    : www.movcr.com
Language                                 : English
Default                                  : No
Forced                                   : No

Audio #1
ID                                       : 2
Format                                   : AAC
Format/Info                              : Advanced Audio Codec
Format profile                           : LC
Codec ID                                 : A_AAC-2
Duration                                 : 1 h 39 min
Bit rate                                 : 128 kb/s
Channel(s)                               : 2 channels
Channel positions                        : Front: L R
Sampling rate                            : 44.1 kHz
Frame rate                               : 43.066 FPS (1024 SPF)
Compression mode                         : Lossy
Stream size                              : 91.5 MiB (12%)
Title                                    : www.movcr.com
Language                                 : Hindi
Default                                  : Yes
Forced                                   : No

Audio #2
ID                                       : 3
Format                                   : AAC
Format/Info                              : Advanced Audio Codec
Format profile                           : LC
Codec ID                                 : A_AAC-2
Duration                                 : 1 h 39 min
Bit rate                                 : 96.0 kb/s
Channel(s)                               : 1 channel
Channel positions                        : Front: C
Sampling rate                            : 48.0 kHz
Frame rate                               : 46.875 FPS (1024 SPF)
Compression mode                         : Lossy
Stream size                              : 68.5 MiB (9%)
Title                                    : www.movcr.com
Language                                 : English
Default                                  : No
Forced                                   : No



                 
Category:Movies > Hollywood Dub
Lang:Hindi
Total Size:804.19 MB
Info Hash:d062b55f5a5832d53d57db6e53a1d3ea074f259e
Added By:Kingmaker
Date Added:14-03-2018 17:38:08
Downloads:369

Download Torrent

Ratings:Not Yet Rated (Log in to rate it)


Tracker:
udp://tracker.openbittorrent.com:80/announce

This Torrent also has backup trackers
URLSeedersLeechersCompleted
http://share.camoe.cn:8080/announce000
http://t.nyaatracker.com:80/announce000
http://asnet.pw:2710/announce000
http://tracker.tfile.co:80/announce000
http://pt.lax.mx:80/announce000
http://tracker.bt-hash.com:443/announce000
http://grifon.info:80/announce000
http://retracker.spark-rostov.ru:80/announce000
http://tr.kxmp.cf:80/announce000
http://tracker.city9x.com:2710/announce000
http://tracker.tfile.me:80/announce000
http://retracker.telecom.by:80/announce000
http://tracker.electro-torrent.pl:80/announce000
http://open.kickasstracker.com:443/announce000
http://retracker.mgts.by:80/announce000
http://retracker.bashtel.ru:80/announce000
http://tracker.devil-torrents.pl:80/announce000
http://torrentsmd.eu:8080/announce000
http://ns349743.ip-91-121-106.eu:80/announce000
http://torrentsmd.me:8080/announce000
http://agusiq-torrents.pl:6969/announce000
http://fxtt.ru:80/announce000


File List: 


Comments

No comments still posted

Powered by 10 Hamsters v2-svn -|- Page Generated In 1.786604 secs.
-|- RSS Feed -|- Feed Info
Theme By: Nikkbu