Login
Username:
Password:
[Signup]
[Recover Account]


Browse Torrents

Poll


You must be logged in to view polls



Latest Torrents
The.Workshop.2017....
- [Size: 679.94 MB]

Isle of Dogs (2018...
- [Size: 785.81 MB]

The.Jim.Jefferies....
- [Size: 236.19 MB]

WWE Smackdown Live...
- [Size: 477.11 MB]

Expedition.Unknown...
- [Size: 968.41 MB]


Torrent Details For " Dark Tide 2012 720p x264 Esub BluRay Dual Audio English Hindi GOPISAHI"

Dark Tide 2012 720p x264 Esub BluRay Dual Audio English Hindi GOPISAHI

Download this torrent | Magnet Download
Health:
Seeds: 10
Leechers: 1,108
Completed:
Last Checked: 14-03-2018 15:29:18
External Torrent
Update Stats


Watch-Free-HD     Download

Poster


iMDB
Imdb Picture Title: Dark Tide
Year: 2012
Runtime: 94 minutes
Votes: 7233
Rating: 4.3/10
Language: English
Country: USA, UK, South Africa, Germany, France
All Genres: Adventure, Drama, Thriller
Plot Outline: A professional diver tutor returns to deep waters after 1 year, following an almost fatal encounter with a great white shark. The nightmare from the deep is still lurking - more carnivorous and hungry than ever.
Tagline: In Shark Alley, courage runs deep
Director: John Stockwell
Writing By: Ronnie Christensen,Amy Sorlie,Amy Sorlie,
Produced By: Verenice Buerling,Jeanette Buerling-Milio,Matthew E. Chausse,Philippe Chausse,Sukee Chew,Meg Clark,Ali Cook,Trish Cook,Michael Corso,Chris Curling,Brian Donovan,Vlokkie Gordon,Anthony Gudas,Nina Heyns,Norman Merry,John Michaels,Maggie Monteith,Karl Nickoley,Celine Rattray,Douglas Saylor Jr.,Martin Shore,Matthew Spain,Jeff Steele,Guy Tannahill,Christopher Tuffin,Eric van den Eijnden,David Wicht,Pasquale Zaza,
Music: Mark Sayfritz
Cast:
Halle Berry as Kate Mathieson
Olivier Martinez as Jeff
Sizwe Msutu as Themba
Mark Elderkin as Tommy
Thoko Ntshinga as Zukie
Henrik Vos as German Man
Judith Kronenberg-Sarembock as German Woman
Wayne Harrison as English Dad
Josef Du Plessis as English Boy
Jessica Taylor as English Mum
Trailers:
Exclusive Premiere


Watch-Free-HD     Download

Details
Name: Dark Tide 2012 720p x264 Esub BluRay Dual Audio English Hindi GOPISAHI
Description:

Format                         : Matroska
Format version                 : Version 4 / Version 2
File size                      : 631 MiB
Duration                       : 1 h 53 min
Overall bit rate               : 775 kb/s
Movie name                     : Dark Tide 2012 GOPISAHI

Video
Format                         : AVC
Codec ID                       : V_MPEG4/ISO/AVC
Duration                       : 1 h 53 min
Bit rate                       : 600 kb/s
Width                          : 1 280 pixels
Height                         : 544 pixels
Display aspect ratio           : 2.35:1
Frame rate mode                : Constant
Frame rate                     : 23.976 (24000/1001) FPS
Color space                    : YUV
Chroma subsampling             : 4:2:0
Bit depth                      : 8 bits
Scan type                      : Progressive
Bits/(Pixel*Frame)             : 0.036
Stream size                    : 488 MiB (77%)
Title                          : GOPISAHI
Writing library                : x264 core 155 r2893 b00bcaf

Audio #1
Format                         : AAC
Duration                       : 1 h 53 min
Bit rate                       : 83.6 kb/s
Channel(s)                     : 6 channels
Channel positions              : Front: L C R, Side: L R, LFE
Sampling rate                  : 44.1 kHz
Frame rate                     : 43.066 FPS (1024 SPF)
Compression mode               : Lossy
Stream size                    : 68.0 MiB (11%)
Title                          : GOPISAHI
Language                       : English

Audio #2
Format                         : AAC
Duration                       : 1 h 53 min
Bit rate                       : 89.1 kb/s
Channel(s)                     : 6 channels
Channel positions              : Front: L C R, Side: L R, LFE
Sampling rate                  : 44.1 kHz
Frame rate                     : 43.066 FPS (1024 SPF)
Compression mode               : Lossy
Stream size                    : 72.5 MiB (11%)
Title                          : GOPISAHI
Language                       : Hindi

Text
Language                       : English


Category:Movies > Hollywood Dub
Lang:Hindi
Total Size:630.67 MB
Info Hash:4a6757e80b5ac4b48a816e84e9d646abaf8efa10
Added By:gopisahi
Date Added:14-03-2018 13:03:02
Downloads:364

Download Torrent

Ratings:Not Yet Rated (Log in to rate it)


Tracker:
udp://9.rarbg.com:2740/announce


File List: 


Comments

No comments still posted

Powered by 10 Hamsters v2-svn -|- Page Generated In 0.391578 secs.
-|- RSS Feed -|- Feed Info
Theme By: Nikkbu