Login
Username:
Password:
[Signup]
[Recover Account]


Browse Torrents

Poll


You must be logged in to view polls



Latest Torrents
The.Workshop.2017....
- [Size: 679.94 MB]

Isle of Dogs (2018...
- [Size: 785.81 MB]

The.Jim.Jefferies....
- [Size: 236.19 MB]

WWE Smackdown Live...
- [Size: 477.11 MB]

Expedition.Unknown...
- [Size: 968.41 MB]


Torrent Details For "Hotel Transylvania 2012 720p x264 Esub BluRay Dual Audio English Hindi GOPISAHI"

Hotel Transylvania 2012 720p x264 Esub BluRay Dual Audio English Hindi GOPISAHI

Download this torrent | Magnet Download
Health:
Seeds: 47
Leechers: 58
Completed: 1,059 
Last Checked: 19-03-2018 15:43:50
External Torrent
Update Stats


Watch-Free-HD     Download

Poster


iMDB
Imdb Picture Title: Hotel Transylvania
Year: 2012
Runtime: 91 minutes
Votes: 175885
Rating: 7.1/10
Language: English
Country: USA
All Genres: Animation, Comedy, Family, Fantasy
Plot Outline: Dracula, who operates a high-end resort away from the human world, goes into overprotective mode when a boy discovers the resort and falls for the count's teen-aged daughter.
Tagline: Where monsters go to get away from it all
Director: Genndy Tartakovsky
Writing By: Peter Baynham,Robert Smigel,Todd Durham,Dan Hageman,Kevin Hageman,
Produced By: Lydia Bottegoni,Michelle Murdocca,Adam Sandler,Robert Smigel,
Music: Mark Mothersbaugh
Plot:

In 1895, Dracula builds a resort in Transylvania, hidden from the humans, to raise his beloved daughter Mavis in a safe environment. In the present, the place is the Hotel Transylvania, where monsters bring their families to vacation far from the frightening humans. Dracula invites his friends - Frankenstein and his wife Eunice; Wayne and Wanda, the werewolves; Griffin, the invisible man; Murray, the mummy; Bigfoot, among others - to celebrate the 118th birthday of Mavis. When the party is ready to start, the 21-year-old Jonathan is walking through the forest and stumbles upon the hotel. Dracula sees Jonathan and disguises him as a monster to hide Jonathan from the guests. But Mavis also sees Jonathan and Dracula forces him to pose as a monster. Soon Mavis believes that Jonathan is the "zing" of her life despite the advice of her father about humans.

- Written by Claudio Carvalho, Rio de Janeiro, Brazil

Welcome to the Hotel Transylvania, Dracula's lavish five-stake resort, where monsters and their families can live it up, free to be the monsters they are without humans to bother them. On one special weekend, Dracula has invited some of the world's most famous monsters - Frankenstein and his wife, the Mummy, the Invisible Man, a family of werewolves, and more - to celebrate his daughter Mavis' 118th birthday. For Drac, catering to all of these legendary monsters is no problem - but his world could come crashing down when a human stumbles on the hotel for the first time and takes a shine to Mavis.

- Written by Anonymous

Dracula, who operates a high-end resort away from the human world, goes into overprotective mode when a boy discovers the resort and falls for the count's teen-aged daughter.

- Written by Anonymous
Cast:
Adam Sandler as Dracula
Andy Samberg as Jonathan
Selena Gomez as Mavis
Kevin James as Frankenstein
Fran Drescher as Eunice
Steve Buscemi as Wayne
Molly Shannon as Wanda
David Spade as Griffin
CeeLo Green as Murray
Jon Lovitz as Quasimodo
Trailers:
No. 2
No. 1


Watch-Free-HD     Download

Details
Name:Hotel Transylvania 2012 720p x264 Esub BluRay Dual Audio English Hindi GOPISAHI
Description:

Format                         : Matroska
Format version                 : Version 4 / Version 2
File size                      : 513 MiB
Duration                       : 1 h 31 min
Overall bit rate               : 783 kb/s
Movie name                     : Hotel Transylvania 2012 GOPISAHI

Video
Format                         : AVC
Codec ID                       : V_MPEG4/ISO/AVC
Duration                       : 1 h 31 min
Bit rate                       : 600 kb/s
Width                          : 1 280 pixels
Height                         : 684 pixels
Display aspect ratio           : 1.85:1
Frame rate mode                : Constant
Frame rate                     : 23.976 (24000/1001) FPS
Stream size                    : 393 MiB (77%)
Title                          : GOPISAHI
Writing library                : x264 core 155 r2893 b00bcaf

Audio #1
Format                         : AAC
Duration                       : 1 h 31 min
Bit rate                       : 86.4 kb/s
Channel(s)                     : 6 channels
Channel positions              : Front: L C R, Side: L R, LFE
Sampling rate                  : 44.1 kHz
Frame rate                     : 43.066 FPS (1024 SPF)
Compression mode               : Lossy
Stream size                    : 56.6 MiB (11%)
Title                          : GOPISAHI
Language                       : English

Audio #2
Format                         : AAC
Duration                       : 1 h 31 min
Bit rate                       : 93.9 kb/s
Channel(s)                     : 6 channels
Channel positions              : Front: L C R, Side: L R, LFE
Sampling rate                  : 44.1 kHz
Frame rate                     : 43.066 FPS (1024 SPF)
Compression mode               : Lossy
Stream size                    : 61.4 MiB (12%)
Title                          : GOPISAHI
Language                       : Hindi

Text
Language                       : English


Category:Movies > Hollywood Dub
Lang:Hindi
Total Size:512.62 MB
Info Hash:867f1aa05eb13a144599ecd1bd76f525cfb93699
Added By:gopisahi
Date Added:14-03-2018 12:54:40
Downloads:231

Download Torrent

Ratings:Not Yet Rated (Log in to rate it)


Tracker:
udp://9.rarbg.com:2740/announce


File List: 


Comments

No comments still posted

Powered by 10 Hamsters v2-svn -|- Page Generated In 0.346372 secs.
-|- RSS Feed -|- Feed Info
Theme By: Nikkbu