Login
Username:
Password:
[Signup]
[Recover Account]


Browse Torrents

Poll


You must be logged in to view polls



Latest Torrents
[MARATHI] Farzand ...
- [Size: 1.19 GB]

Ancient.Aliens.S13...
- [Size: 1.13 GB]

18+.Ruin.Me.2017.7...
- [Size: 921.91 MB]

Animal World 2018 ...
- [Size: 1.24 GB]

Warrior.Road.2017....
- [Size: 1.36 GB]


Torrent Details For "Ferdinand (2017) 720p BluRay Dual Audio Org [Hindi 5.1 (Untouched) - English 5.1] ~ KartiKing ~..."

Ferdinand (2017) 720p BluRay Dual Audio Org [Hindi 5.1 (Untouched) - English 5.1] ~ KartiKing ~...

Download this torrent | Magnet Download
Health:
Seeds: 180
Leechers: 931
Completed: 117 
Last Checked: 13-03-2018 18:58:58
External Torrent
Update Stats


Watch-Free-HD     Download

Poster


iMDB
Imdb Picture Title: Ferdinand
Year: 2017
Runtime: 108 minutes
Votes: 1969
Rating: 6.8/10
Language: English
Country: USA
All Genres: Animation, Adventure, Comedy, Family, Fantasy
Plot Outline: After Ferdinand, a bull with a big heart, is mistaken for a dangerous beast, he is captured and torn from his home. Determined to return to his family, he rallies a misfit team on the ultimate adventure.
Tagline: Built to fight. Born to love.
Director: Carlos Saldanha
Writing By: Munro Leaf,Robert Lawson,Ron Burch,David Kidd,Don Rhymer,Robert L. Baird,Tim Federle,Brad Copeland,
Produced By: Bruce Anderson,John Davis,Lori Forte,Lisa Marie Stetler,Chris Wedge,
Music: John Powell
Cast:
Jack Gore as Young Valiente
Jet Jurgensmeyer as Young Guapo
Nile Diaz as Young Bones
Colin H. Murphy as Young Ferdinand
Carlos Saldanha as Screaming Matador / Additional Voices
Jeremy Sisto as Ferdinand's Father
Bobby Cannavale as Valiente's Father / Valiente
Raúl Esparza as Moreno
Luis Carlos de La Lombana as Ranch Hand #1
Juanes as Juan
Trailers:
International Trailer
New Trailer
Trailer #2
Trailer #1


Watch-Free-HD     Download

Details
Name:Ferdinand (2017) 720p BluRay Dual Audio Org [Hindi 5.1 (Untouched) - English 5.1] ~ KartiKing ~...
Description:
Ferdinand (2017) 720p BluRay Dual Audio Org [Hindi 5.1 (Untouched) - English 5.1] ~ KartiKing ~ Filmy Thugs

 

 

INFO :-

Org Untouched BD DD 5.1 448 kbps Hindi Audio
Credits ~ Rohit

SAMPLE INCLUDED !

General
Format                                   : Matroska
Format version                           : Version 4 / Version 2
File size                                : 1.23 GiB
Duration                                 : 1 h 48 min
Overall bit rate                         : 1 631 kb/s
Movie name                               : Ferdinand (2017) ~ KartiKing ~ Filmy Thugs
Encoded date                             : UTC 2018-03-13 14:44:49
Writing application                      : mkvmerge v21.0.0 ('Tardigrades Will Inherit The Earth') 64-bit
Writing library                          : libebml v1.3.5 + libmatroska v1.4.8

Video
ID                                       : 1
Format                                   : AVC
Format/Info                              : Advanced Video Codec
Format profile                           : [email protected]
Format settings                          : CABAC / 5 Ref Frames
Format settings, CABAC                   : Yes
Format settings, RefFrames               : 5 frames
Codec ID                                 : V_MPEG4/ISO/AVC
Duration                                 : 1 h 48 min
Bit rate                                 : 913 kb/s
Width                                    : 1 280 pixels
Height                                   : 536 pixels
Display aspect ratio                     : 2.40:1
Frame rate mode                          : Constant
Frame rate                               : 23.976 (24000/1001) FPS
Color space                              : YUV
Chroma subsampling                       : 4:2:0
Bit depth                                : 8 bits
Scan type                                : Progressive
Bits/(Pixel*Frame)                       : 0.056
Stream size                              : 706 MiB (56%)
Title                                    : KartiKing
Language                                 : English
Default                                  : Yes
Forced                                   : Yes

Audio #1
ID                                       : 2
Format                                   : AAC
Format/Info                              : Advanced Audio Codec
Format profile                           : LC
Codec ID                                 : A_AAC-2
Duration                                 : 1 h 48 min
Bit rate                                 : 252 kb/s
Channel(s)                               : 6 channels
Channel positions                        : Front: L C R, Side: L R, LFE
Sampling rate                            : 48.0 kHz
Frame rate                               : 46.875 FPS (1024 SPF)
Compression mode                         : Lossy
Delay relative to video                  : 9 ms
Stream size                              : 195 MiB (15%)
Title                                    : ENG DD 5.1 KartiKing
Language                                 : English
Default                                  : No
Forced                                   : No

Audio #2
ID                                       : 5
Format                                   : AC-3
Format/Info                              : Audio Coding 3
Codec ID                                 : A_AC3
Duration                                 : 1 h 48 min
Bit rate mode                            : Constant
Bit rate                                 : 448 kb/s
Channel(s)                               : 6 channels
Channel positions                        : Front: L C R, Side: L R, LFE
Sampling rate                            : 48.0 kHz
Frame rate                               : 31.250 FPS (1536 SPF)
Bit depth                                : 16 bits
Compression mode                         : Lossy
Stream size                              : 347 MiB (27%)
Title                                    : Org Untouched BD DD 5.1 448 kbps Hindi KartiKing
Language                                 : Hindi
Service kind                             : Complete Main
Default                                  : Yes
Forced                                   : Yes

Text #1
ID                                       : 3
Format                                   : PGS
Muxing mode                              : zlib
Codec ID                                 : S_HDMV/PGS
Codec ID/Info                            : Picture based subtitle format used on BDs/HD-DVDs
Duration                                 : 1 h 39 min
Bit rate                                 : 28.7 kb/s
Count of elements                        : 2292
Stream size                              : 20.3 MiB (2%)
Title                                    : KartiKing
Default                                  : No
Forced                                   : No

Text #2
ID                                       : 4
Format                                   : PGS
Muxing mode                              : zlib
Codec ID                                 : S_HDMV/PGS
Codec ID/Info                            : Picture based subtitle format used on BDs/HD-DVDs
Duration                                 : 1 h 46 min
Bit rate                                 : 21.2 kb/s
Count of elements                        : 2310
Stream size                              : 16.2 MiB (1%)
Title                                    : KartiKing
Default                                  : No
Forced                                   : No

Text #3
ID                                       : 6
Format                                   : UTF-8
Codec ID                                 : S_TEXT/UTF8
Codec ID/Info                            : UTF-8 Plain Text
Duration                                 : 1 h 42 min
Bit rate                                 : 48 b/s
Count of elements                        : 1446
Stream size                              : 36.4 KiB (0%)
Title                                    : SRT Eng Kartiking
Default                                  : Yes
Forced                                   : Yes

Menu
00:00:00.000                             : :00:00:00.000
00:03:37.801                             : :00:03:37.801
00:08:10.281                             : :00:08:10.281
00:11:51.461                             : :00:11:51.461
00:16:23.524                             : :00:16:23.524
00:24:14.870                             : :00:24:14.870
00:28:30.459                             : :00:28:30.459
00:34:03.124                             : :00:34:03.124
00:37:53.188                             : :00:37:53.188
00:40:54.160                             : :00:40:54.160
00:44:55.359                             : :00:44:55.359
00:49:15.995                             : :00:49:15.995
00:53:27.246                             : :00:53:27.246
00:59:40.952                             : :00:59:40.952
01:03:20.672                             : :01:03:20.672
01:06:23.271                             : :01:06:23.271
01:09:19.822                             : :01:09:19.822
01:12:18.918                             : :01:12:18.918
01:17:33.941                             : :01:17:33.941
01:20:55.059                             : :01:20:55.059
01:25:33.837                             : :01:25:33.837
01:30:38.391                             : :01:30:38.391
01:36:01.839                             : :01:36:01.839
01:38:01.167                             : :01:38:01.167




SCREENSHOTS :-

 
 
 
 
 
 
 
 


KartiKing
Join Filmy Thugs On FB ~
 http://www.facebook.com/groups/filmythugs
Join Us on Telegram.org ~
 http://t.me/joinchat/IWXk2Erc18Cy-Sq2FPrYaQ




Category:Movies > Hollywood Dub
Lang:Hindi
Total Size:1.24 GB
Info Hash:3db74f235cbec777b3ea010096e90ea6ed619d8b
Added By:KartiKing
Date Added:13-03-2018 17:44:05
Downloads:161

Download Torrent

Ratings:Not Yet Rated (Log in to rate it)


Tracker:
udp://9.rarbg.to:2710/announce


File List: 


Comments

No comments still posted

Powered by 10 Hamsters v2-svn -|- Page Generated In 2.972810 secs.
-|- RSS Feed -|- Feed Info
Theme By: Nikkbu