Login
Username:
Password:
[Signup]
[Recover Account]


Browse Torrents

Poll


You must be logged in to view polls



Latest Torrents
Dil Se (1998) WEBT...
- [Size: 1.70 GB]

Ra Ra Krishnayya (...
- [Size: 1.26 GB]

[MARATHI] Farzand ...
- [Size: 1.19 GB]

Ancient.Aliens.S13...
- [Size: 1.13 GB]

18+.Ruin.Me.2017.7...
- [Size: 921.91 MB]


Torrent Details For "Justice League (2017) 720p BluRay Dual Audio Org [Hindi 5.1 (Untouched) - English 5.1] ~ Karti..."

Justice League (2017) 720p BluRay Dual Audio Org [Hindi 5.1 (Untouched) - English 5.1] ~ Karti...

Download this torrent | Magnet Download
Health:
Seeds: 38
Leechers: 210
Completed: 73 
Last Checked: 13-03-2018 18:58:10
External Torrent
Update Stats


Watch-Free-HD     Download

Poster


iMDB
Imdb Picture Title: Justice League
Year: 2017
Language: English
Country: USA
All Genres: Action, Adventure, Fantasy, Sci-Fi
Plot Outline: Fueled by his restored faith in humanity and inspired by Superman's selfless act, Bruce Wayne enlists the help of his newfound ally, Diana Prince, to face an even greater enemy.
Tagline: Unite
Director: Zack Snyder
Writing By: Chris Terrio,Joss Whedon,Zack Snyder,Chris Terrio,Bob Kane,Bill Finger,William Moulton Marston,Joe Shuster,Jerry Siegel,
Produced By: Ben Affleck,Jon Berg,Wesley Coller,Jose María de La Puente,Finni Johannsson,Geoff Johns,Charles Roven,Deborah Snyder,Chris Terrio,Andrea Wertheim,Gregor Wilson,
Music: Danny Elfman
Cast:
Gal Gadot as Diana Prince / Wonder Woman
Robin Wright as Antiope
Jason Momoa as Arthur Curry / Aquaman
Connie Nielsen as Queen Hippolyta
Amy Adams as Lois Lane
Ben Affleck as Bruce Wayne / Batman
Ezra Miller as Barry Allen / The Flash
Amber Heard as Mera
Henry Cavill as Clark Kent / Superman
Diane Lane as Martha Kent
Trailers:
Official Heroes Trailer
Comic-Con Sneak Peek
Official Trailer
Special Comic-Con Footage


Watch-Free-HD     Download

Details
Name:Justice League (2017) 720p BluRay Dual Audio Org [Hindi 5.1 (Untouched) - English 5.1] ~ Karti...
Description:
Justice League (2017) 720p BluRay Dual Audio Org [Hindi 5.1 (Untouched) - English 5.1] ~ KartiKing ~ Filmy Thugs

 

 

INFO :-

Org Untouched BD DD 5.1 448 kbps Hindi Audio & Eng Hindi PGS
Credits ~ Rohit (Thanks)

SAMPLE INCLUDED !

Media INFO ~

General
Format                                   : Matroska
Format version                           : Version 4 / Version 2
File size                                : 1.87 GiB
Duration                                 : 2 h 0 min
Overall bit rate                         : 2 228 kb/s
Movie name                               : Justice League (2017) ~ KartiKing ~ Filmy Thugs
Encoded date                             : UTC 2018-03-13 13:03:37
Writing application                      : mkvmerge v21.0.0 ('Tardigrades Will Inherit The Earth') 32-bit
Writing library                          : libebml v1.3.5 + libmatroska v1.4.8

Video
ID                                       : 4
Format                                   : AVC
Format/Info                              : Advanced Video Codec
Format profile                           : [email protected]
Format settings                          : CABAC / 5 Ref Frames
Format settings, CABAC                   : Yes
Format settings, RefFrames               : 5 frames
Codec ID                                 : V_MPEG4/ISO/AVC
Duration                                 : 2 h 0 min
Bit rate                                 : 1 514 kb/s
Width                                    : 1 280 pixels
Height                                   : 720 pixels
Display aspect ratio                     : 16:9
Frame rate mode                          : Constant
Frame rate                               : 23.976 (24000/1001) FPS
Color space                              : YUV
Chroma subsampling                       : 4:2:0
Bit depth                                : 8 bits
Scan type                                : Progressive
Bits/(Pixel*Frame)                       : 0.069
Stream size                              : 1.27 GiB (68%)
Title                                    : KartiKing
Language                                 : English
Default                                  : Yes
Forced                                   : Yes

Audio #1
ID                                       : 1
Format                                   : AC-3
Format/Info                              : Audio Coding 3
Codec ID                                 : A_AC3
Duration                                 : 2 h 0 min
Bit rate mode                            : Constant
Bit rate                                 : 448 kb/s
Channel(s)                               : 6 channels
Channel positions                        : Front: L C R, Side: L R, LFE
Sampling rate                            : 48.0 kHz
Frame rate                               : 31.250 FPS (1536 SPF)
Bit depth                                : 16 bits
Compression mode                         : Lossy
Stream size                              : 385 MiB (20%)
Title                                    : Untouched BD DD 5.1 448 kbps KartiKing
Language                                 : Hindi
Service kind                             : Complete Main
Default                                  : Yes
Forced                                   : Yes

Audio #2
ID                                       : 5
Format                                   : AAC
Format/Info                              : Advanced Audio Codec
Format profile                           : LC
Codec ID                                 : A_AAC-2
Duration                                 : 2 h 0 min
Bit rate                                 : 253 kb/s
Channel(s)                               : 6 channels
Channel positions                        : Front: L C R, Side: L R, LFE
Sampling rate                            : 48.0 kHz
Frame rate                               : 46.875 FPS (1024 SPF)
Compression mode                         : Lossy
Delay relative to video                  : 9 ms
Stream size                              : 217 MiB (11%)
Title                                    : ENG DD 5.1 KartiKing
Language                                 : English
Default                                  : No
Forced                                   : No

Text #1
ID                                       : 2
Format                                   : PGS
Muxing mode                              : zlib
Codec ID                                 : S_HDMV/PGS
Codec ID/Info                            : Picture based subtitle format used on BDs/HD-DVDs
Duration                                 : 1 h 59 min
Bit rate                                 : 30.8 kb/s
Count of elements                        : 3014
Stream size                              : 26.2 MiB (1%)
Title                                    : PGS KartiKing
Language                                 : English
Default                                  : No
Forced                                   : No

Text #2
ID                                       : 3
Format                                   : PGS
Muxing mode                              : zlib
Codec ID                                 : S_HDMV/PGS
Codec ID/Info                            : Picture based subtitle format used on BDs/HD-DVDs
Duration                                 : 1 h 57 min
Bit rate                                 : 719 b/s
Count of elements                        : 62
Stream size                              : 621 KiB (0%)
Title                                    : PGS Hindi KartiKing
Language                                 : Hindi
Default                                  : No
Forced                                   : No

Text #3
ID                                       : 6
Format                                   : UTF-8
Codec ID                                 : S_TEXT/UTF8
Codec ID/Info                            : UTF-8 Plain Text
Duration                                 : 1 h 58 min
Bit rate                                 : 42 b/s
Count of elements                        : 1233
Stream size                              : 36.5 KiB (0%)
Title                                    : SRT ESUBS
Language                                 : English
Default                                  : Yes
Forced                                   : Yes

Menu
00:00:00.000                             : :00:00:00.000
00:10:56.155                             : :00:10:56.155
00:19:16.489                             : :00:19:16.489
00:30:41.673                             : :00:30:41.673
00:40:19.667                             : :00:40:19.667
00:49:56.535                             : :00:49:56.535
01:01:26.892                             : :01:01:26.892
01:09:41.552                             : :01:09:41.552
01:19:18.587                             : :01:19:18.587
01:30:34.512                             : :01:30:34.512
01:40:33.569                             : :01:40:33.569
01:48:43.058                             : :01:48:43.058




SCREENSHOTS :-


 
 
 
 
 

KartiKing
Join Filmy Thugs On FB ~
 http://www.facebook.com/groups/filmythugs
Join Us on Telegram.org ~
 http://t.me/joinchat/IWXk2Erc18Cy-Sq2FPrYaQ




Category:Movies > Hollywood Dub
Lang:Hindi
Total Size:1.88 GB
Info Hash:1632f94d1b9c5213a4dfd3c12862240fa8e366bc
Added By:KartiKing
Date Added:13-03-2018 17:43:08
Downloads:92

Download Torrent

Ratings:Not Yet Rated (Log in to rate it)


Tracker:
udp://9.rarbg.to:2710/announce


File List: 


Comments

No comments still posted

Powered by 10 Hamsters v2-svn -|- Page Generated In 2.074737 secs.
-|- RSS Feed -|- Feed Info
Theme By: Nikkbu