Login
Username:
Password:
[Signup]
[Recover Account]


Browse Torrents

Poll


You must be logged in to view polls



Latest Torrents
Ra Ra Krishnayya (...
- [Size: 1.26 GB]

[MARATHI] Farzand ...
- [Size: 1.19 GB]

Ancient.Aliens.S13...
- [Size: 1.13 GB]

18+.Ruin.Me.2017.7...
- [Size: 921.91 MB]

Animal World 2018 ...
- [Size: 1.24 GB]


Torrent Details For "Ferdinand 2017 720p BluRay ESub Dual Audio ORG [Hindi DD5.1 - English DD5.1]"

Ferdinand 2017 720p BluRay ESub Dual Audio ORG [Hindi DD5.1 - English DD5.1]

Download this torrent | Magnet Download
Health:
Seeds: 0
Leechers: 0
Completed:
Last Checked: 13-03-2018 18:59:27
External Torrent
Update Stats


Watch-Free-HD     Download

Poster


iMDB
Imdb Picture Title: Ferdinand
Year: 2017
Runtime: 108 minutes
Votes: 1969
Rating: 6.8/10
Language: English
Country: USA
All Genres: Animation, Adventure, Comedy, Family, Fantasy
Plot Outline: After Ferdinand, a bull with a big heart, is mistaken for a dangerous beast, he is captured and torn from his home. Determined to return to his family, he rallies a misfit team on the ultimate adventure.
Tagline: Built to fight. Born to love.
Director: Carlos Saldanha
Writing By: Munro Leaf,Robert Lawson,Ron Burch,David Kidd,Don Rhymer,Robert L. Baird,Tim Federle,Brad Copeland,
Produced By: Bruce Anderson,John Davis,Lori Forte,Lisa Marie Stetler,Chris Wedge,
Music: John Powell
Cast:
Jack Gore as Young Valiente
Jet Jurgensmeyer as Young Guapo
Nile Diaz as Young Bones
Colin H. Murphy as Young Ferdinand
Carlos Saldanha as Screaming Matador / Additional Voices
Jeremy Sisto as Ferdinand's Father
Bobby Cannavale as Valiente's Father / Valiente
Raúl Esparza as Moreno
Luis Carlos de La Lombana as Ranch Hand #1
Juanes as Juan
Trailers:
International Trailer
New Trailer
Trailer #2
Trailer #1


Watch-Free-HD     Download

Details
Name:Ferdinand 2017 720p BluRay ESub Dual Audio ORG [Hindi DD5.1 - English DD5.1]
Description:
General
Unique ID                   : 238214166381109816110112267286965651972 (0xB336612ED88F44FCED159F5C8F740A04)
Format                      : Matroska
Format version              : Version 4 / Version 2
File size                   : 1.05 GiB
Duration                    : 1 h 48 min
Overall bit rate            : 1 385 kb/s
Movie name                  : [Www.MoviesBay.info]
Encoded date                : UTC 2018-03-13 14:50:12
Writing application         : mkvmerge v20.0.0 ('I Am The Sun') 64-bit
Writing library             : libebml v1.3.5 + libmatroska v1.4.8

Video
ID                          : 1
Format                      : AVC
Format/Info                 : Advanced Video Codec
Format profile              : [email protected]
Format settings             : CABAC / 4 Ref Frames
Format settings, CABAC      : Yes
Format settings, ReFrames   : 4 frames
Codec ID                    : V_MPEG4/ISO/AVC
Duration                    : 1 h 48 min
Bit rate                    : 999 kb/s
Width                       : 1 280 pixels
Height                      : 534 pixels
Display aspect ratio        : 2.40:1
Original display aspect rat : 2.40:1
Frame rate mode             : Constant
Frame rate                  : 23.976 (24000/1001) FPS
Color space                 : YUV
Chroma subsampling          : 4:2:0
Bit depth                   : 8 bits
Scan type                   : Progressive
Bits/(Pixel*Frame)          : 0.061
Stream size                 : 772 MiB (72%)
Writing library             : x264 core 148 r2708 86b7198
Encoding settings           : cabac=1 / ref=2 / deblock=1:-1:-1 / analyse=0x3:0x113 / me=hex / subme=6 / psy=1 / psy_rd=1.00:0.15 / mixed_ref=1 / me_range=16 / chroma_me=1 / trellis=1 / 8x8dct=1 / cqm=0 / deadzone=21,11 / fast_pskip=1 / chroma_qp_offset=-3 / threads=17 / lookahead_threads=2 / sliced_threads=0 / nr=0 / decimate=1 / interlaced=0 / bluray_compat=0 / constrained_intra=0 / bframes=3 / b_pyramid=2 / b_adapt=1 / b_bias=0 / direct=1 / weightb=1 / open_gop=0 / weightp=1 / keyint=240 / keyint_min=24 / scenecut=40 / intra_refresh=0 / rc_lookahead=30 / rc=2pass / mbtree=1 / bitrate=999 / ratetol=1.0 / qcomp=0.60 / qpmin=0 / qpmax=69 / qpstep=4 / cplxblur=20.0 / qblur=0.5 / ip_ratio=1.40 / aq=1:1.00
Default                     : Yes
Forced                      : No
Color range                 : Limited
Color primaries             : BT.709
Transfer characteristics    : BT.709
Matrix coefficients         : BT.709

Audio #1
ID                          : 2
Format                      : AAC
Format/Info                 : Advanced Audio Codec
Format profile              : LC
Codec ID                    : A_AAC-2
Duration                    : 1 h 48 min
Bit rate                    : 192 kb/s
Channel(s)                  : 6 channels
Channel positions           : Front: L C R, Side: L R, LFE
Sampling rate               : 48.0 kHz
Frame rate                  : 46.875 FPS (1024 SPF)
Compression mode            : Lossy
Delay relative to video     : -21 ms
Stream size                 : 148 MiB (14%)
Title                       : Hindi
Language                    : Hindi
Default                     : Yes
Forced                      : No

Audio #2
ID                          : 3
Format                      : AAC
Format/Info                 : Advanced Audio Codec
Format profile              : LC
Codec ID                    : A_AAC-2
Duration                    : 1 h 48 min
Bit rate                    : 192 kb/s
Channel(s)                  : 6 channels
Channel positions           : Front: L C R, Side: L R, LFE
Sampling rate               : 48.0 kHz
Frame rate                  : 46.875 FPS (1024 SPF)
Compression mode            : Lossy
Delay relative to video     : -12 ms
Stream size                 : 148 MiB (14%)
Title                       : English
Language                    : English
Default                     : No
Forced                      : No

Text
ID                          : 4
Format                      : UTF-8
Codec ID                    : S_TEXT/UTF8
Codec ID/Info               : UTF-8 Plain Text
Duration                    : 1 h 42 min
Bit rate                    : 50 b/s
Count of elements           : 1446
Stream size                 : 37.6 KiB (0%)
Title                       : English
Language                    : English
Default                     : Yes
Forced                      : No




  
 
 
 
 
Category:Movies > Hollywood Dub
Lang:Hindi
Total Size:1.05 GB
Info Hash:d81da7384510a2365978e02224f061b694c64783
Added By:sultaan
Date Added:13-03-2018 14:54:27
Downloads:106

Download Torrent

Ratings:Not Yet Rated (Log in to rate it)


Tracker:
udp://tracker.openbittorrent.com:80/announce


File List: 


Comments

No comments still posted

Powered by 10 Hamsters v2-svn -|- Page Generated In 1.875975 secs.
-|- RSS Feed -|- Feed Info
Theme By: Nikkbu