[Recover Account]

Browse Torrents


You must be logged in to view polls

Latest Torrents
- [Size: 298.37 MB]

- [Size: 196.25 MB]

Duniyadari 2013 10...
- [Size: 7.61 GB]

Deewana 1992 1080p...
- [Size: 5.32 GB]

Secret Superstar (...
- [Size: 621.93 MB]

Torrent Details For "The Family 2013 720p WEBRIP Hindi GOPISAHI"

The Family 2013 720p WEBRIP Hindi GOPISAHI

Download this torrent | Magnet Download
Seeds: 1
Leechers: 182
Last Checked: 13-03-2018 15:41:35
External Torrent
Update Stats

Watch-Free-HD     Download


Imdb Picture Title: The Family
Year: 2013
Runtime: 111 minutes
Votes: 93667
Rating: 6.3/10
Language: English, French, Italian
Country: USA, France
All Genres: Comedy, Crime, Thriller
Plot Outline: The Manzoni family, a notorious mafia clan, is relocated to Normandy, France under the witness protection program, where fitting in soon becomes challenging as their old habits die hard.
Tagline: Dianna Agron is the mobgirl next door
Director: Luc Besson
Writing By: Luc Besson,Michael Caleo,Tonino Benacquista,
Produced By: Jason Beckman,Virginie Besson-Silla,Ron Burkle,Jason Colbeck,Ryan Kavanaugh,Martin Scorsese,Tucker Tooley,
Music: Evgueni Galperine Sacha Galperine

A mafia boss and his family are relocated to a sleepy town in France under the witness protection program after snitching on the mob. Despite the best efforts of CIA Agent Stansfield (Tommy Lee Jones) to keep them in line, Fred Manzoni (Robert De Niro), his wife Maggie (Michelle Pfeiffer) and their children Belle (Dianna Agron) and Warren (John D'Leo) can't help but revert to old habits and blow their cover by handling their problems the "family" way, enabling their former mafia cronies to track them down. Chaos ensues as old scores are settled in the unlikeliest of settings.

- Written by Minoesch

In New York, mobster Giovanni Manzoni makes a deal with FBI agent Robert Stansfield and snitches on his mafia family. In return, Giovanni is included in the witness protection program and receives a new identity, Fred Blake. Giovanni, together with his wife Maggie and their teenager children Belle and Warren, are relocated to the small town Cholong-sur-Avres, in Normandy, under the protection of Stansfield and two other agents. Meanwhile the mafia offers a 20 million-dollar reward to the killer that executes Giovanni and his family. Soon the Blake family uses the mafia methods to improve their lives in the town. But when the mafia accidentally discovers the whereabouts of the Manzoni family, Cholong becomes a no man's land.

- Written by Claudio Carvalho, Rio de Janeiro, Brazil

The Manzoni family, a notorious mafia clan, is relocated to Normandy, France under the witness protection program, where fitting in soon becomes challenging as their old habits die hard.

- Written by Anonymous
Robert De Niro as Fred Blake / Giovanni Manzoni
Michelle Pfeiffer as Maggie Blake
Dianna Agron as Belle Blake
John D'Leo as Warren Blake
Tommy Lee Jones as Robert Stansfield
Jimmy Palumbo as Di Cicco
Domenick Lombardozzi as Caputo
Stan Carp as Don Luchese
Vincent Pastore as Fat Willy
Jon Freda as Rocco
Trailer #1
UK Trailer

Watch-Free-HD     Download

Name:The Family 2013 720p WEBRIP Hindi GOPISAHI

Format                         : Matroska
Format version                 : Version 4 / Version 2
File size                      : 354 MiB
Duration                       : 1 h 41 min
Overall bit rate               : 487 kb/s
Movie name                     : The Family 2013 GOPISAHI

Format                         : AVC
Codec ID                       : V_MPEG4/ISO/AVC
Duration                       : 1 h 41 min
Bit rate                       : 400 kb/s
Width                          : 1 280 pixels
Height                         : 720 pixels
Display aspect ratio           : 16:9
Frame rate mode                : Constant
Frame rate                     : 30.000 FPS
Stream size                    : 291 MiB (82%)
Title                          : GOPISAHI
Language                       : English

ID                             : 2
Format                         : AAC
Duration                       : 1 h 41 min
Bit rate                       : 85.1 kb/s
Channel(s)                     : 6 channels
Channel positions              : Front: L C R, Side: L R, LFE
Sampling rate                  : 44.1 kHz
Frame rate                     : 43.066 FPS (1024 SPF)
Compression mode               : Lossy
Stream size                    : 61.9 MiB (17%)
Title                          : GOPISAHI
Language                       : Hindi

Category:Movies > Hollywood Dub
Total Size:354.45 MB
Info Hash:be6a0c2d997e7d3760b05df3249e6c008bd501c0
Added By:gopisahi
Date Added:13-03-2018 13:09:42

Download Torrent

Ratings:Not Yet Rated (Log in to rate it)


File List: 


No comments still posted

Powered by 10 Hamsters v2-svn -|- Page Generated In 0.349927 secs.
-|- RSS Feed -|- Feed Info
Theme By: Nikkbu