Login
Username:
Password:
[Signup]
[Recover Account]


Browse Torrents

Poll


You must be logged in to view polls



Latest Torrents
The Gambler (2014)...
- [Size: 1.09 GB]

Duck Duck Goose 20...
- [Size: 1.31 GB]

Mamma Mia! Here We...
- [Size: 1.37 GB]

Duck.Duck.Goose.20...
- [Size: 1.20 GB]

Mass V s Class (Ab...
- [Size: 982.55 MB]


Torrent Details For "A Single Man 2009 720p x264 Esub BluRay Dual Audio English Hindi GOPISAHI"

A Single Man 2009 720p x264 Esub BluRay Dual Audio English Hindi GOPISAHI

Download this torrent | Magnet Download
Health:
Seeds: 54
Leechers: 273
Completed: 33 
Last Checked: 13-03-2018 15:48:24
External Torrent
Update Stats


Watch-Free-HD     Download

Poster


iMDB
Imdb Picture Title: A Single Man
Year: 2009
Runtime: 99 minutes
Votes: 94816
Rating: 7.6/10
Language: English, Spanish
Country: USA
All Genres: Drama, Romance
Plot Outline: An English professor, one year after the sudden death of his boyfriend, is unable to cope with his typical days in 1960s Los Angeles.
Director: Tom Ford
Writing By: Christopher Isherwood,Tom Ford,David Scearce,
Produced By: Jason Alisharan,Tom Ford,Andrew Miano,Robert Salerno,Chris Weitz,
Music: Abel Korzeniowski
Cast:
Colin Firth as George
Julianne Moore as Charley
Nicholas Hoult as Kenny
Matthew Goode as Jim
Jon Kortajarena as Carlos
Paulette Lamori as Alva
Ryan Simpkins as Jennifer Strunk
Ginnifer Goodwin as Mrs. Strunk
Teddy Sears as Mr. Strunk
Paul Butler as Christopher Strunk
Trailers:
A Single Man's UK Premiere
A Single Man -- UK Trailer
A Single Man


Watch-Free-HD     Download

Details
Name:A Single Man 2009 720p x264 Esub BluRay Dual Audio English Hindi GOPISAHI
Description:

Format                         : Matroska

Format version                 : Version 4 / Version 2

File size                      : 480 MiB

Duration                       : 1 h 40 min

Overall bit rate               : 668 kb/s

Movie name                     : A Single Man 2009 GOPISAHI


Video

Format                         : AVC

Codec ID                       : V_MPEG4/ISO/AVC

Duration                       : 1 h 40 min

Bit rate                       : 500 kb/s

Width                          : 1 280 pixels

Height                         : 528 pixels

Display aspect ratio           : 2.40:1

Frame rate mode                : Constant

Frame rate                     : 23.976 (24000/1001) FPS

Stream size                    : 359 MiB (75%)

Title                          : GOPISAHI

Writing library                : x264 core 155 r2893 b00bcaf


Audio #1

Format                         : AAC

Duration                       : 1 h 40 min

Bit rate                       : 82.9 kb/s

Channel(s)                     : 6 channels

Channel positions              : Front: L C R, Side: L R, LFE

Sampling rate                  : 44.1 kHz

Frame rate                     : 43.066 FPS (1024 SPF)

Compression mode               : Lossy

Stream size                    : 59.5 MiB (12%)

Title                          : GOPISAHI

Language                       : English


Audio #2

Format                         : AAC

Duration                       : 1 h 40 min

Bit rate                       : 83.0 kb/s

Channel(s)                     : 6 channels

Channel positions              : Front: L C R, Side: L R, LFE

Sampling rate                  : 44.1 kHz

Frame rate                     : 43.066 FPS (1024 SPF)

Compression mode               : Lossy

Stream size                    : 59.6 MiB (12%)

Title                          : GOPISAHI

Language                       : Hindi


Text

Language                       : English



Category:Movies > Hollywood Dub
Lang:Hindi
Total Size:479.80 MB
Info Hash:1da79f9e0444cc7c8b0f3c80166d59a3e0831671
Added By:Unknown
Date Added:13-03-2018 12:37:38
Downloads:196

Download Torrent

Ratings:Not Yet Rated (Log in to rate it)


Tracker:
udp://9.rarbg.com:2740/announce


File List: 


Comments

No comments still posted

Powered by 10 Hamsters v2-svn -|- Page Generated In 0.530520 secs.
-|- RSS Feed -|- Feed Info
Theme By: Nikkbu