Login
Username:
Password:
[Signup]
[Recover Account]


Browse Torrents

Poll


You must be logged in to view polls



Latest Torrents
Dil Se (1998) WEBT...
- [Size: 1.70 GB]

Ra Ra Krishnayya (...
- [Size: 1.26 GB]

[MARATHI] Farzand ...
- [Size: 1.19 GB]

Ancient.Aliens.S13...
- [Size: 1.13 GB]

18+.Ruin.Me.2017.7...
- [Size: 921.91 MB]


Torrent Details For "Insan (2005) WEBHD 720p Hindi AVC ACC - LatestHDMovies"

Insan (2005) WEBHD 720p Hindi AVC ACC - LatestHDMovies

Download this torrent | Magnet Download
Health:
Seeds: 285
Leechers: 225
Completed: 1,602 
Last Checked: 14-03-2018 14:21:53
External Torrent
Update Stats


Watch-Free-HD     Download

Poster


iMDB
Imdb Picture Title: Insan
Year: 2005
Runtime: 141 minutes
Votes: 1070
Rating: 5.0/10
Language: Hindi
Country: India
All Genres: Action, Crime, Drama, Thriller
Plot Outline: A police offer is hellbent to arrest a notorious terrorist who is planning to destroy Mumbai, as well as to settle a personal score with him.
Director: K. Subhash
Writing By: Naeem-Ejaz,
Produced By: Keshu Ramsay,
Music: Himesh Reshammiya
Cast:
Akshay Kumar as Amjad
Ajay Devgn as Inspector Ajit Rathod
Tusshar Kapoor as Avinash
Esha Deol as Heena
Lara Dutta as Meghna
Laila as Indu
Koena Mitra as Sonali Rathod
Archana Puran Singh as Rajjo
Sharat Saxena as Heena's father
Laxmikant Berde as Laxman


Watch-Free-HD     Download

Details
Name:Insan (2005) WEBHD 720p Hindi AVC ACC - LatestHDMovies
Description:





[[[[[>>SAMPLE<<]]]]]
 http://openload.co/f/Yjy4t4m1...vies___TeamLHDM-.mp4








General
Complete name               : Insan (2005) WEBHD 720p Hindi AVC ACC - LatestHDMovies.MP4
Format                      : MPEG-4
Format profile              : Base Media
Codec ID                    : isom (isom/iso2/avc1/mp41)
File size                   : 1.33 GiB
Duration                    : 2 h 21 min
Overall bit rate            : 1 350 kb/s
Movie name                  : LatestHDMovies | TeamLHDM
Writing application         : Lavf57.83.100
Cover                       : Yes

Video
ID                          : 1
Format                      : AVC
Format/Info                 : Advanced Video Codec
Format profile              : [email protected]
Format settings             : CABAC / 5 Ref Frames
Format settings, CABAC      : Yes
Format settings, ReFrames   : 5 frames
Codec ID                    : avc1
Codec ID/Info               : Advanced Video Coding
Duration                    : 2 h 21 min
Bit rate                    : 1 216 kb/s
Width                       : 1 280 pixels
Height                      : 720 pixels
Display aspect ratio        : 16:9
Frame rate mode             : Constant
Frame rate                  : 25.000 FPS
Color space                 : YUV
Chroma subsampling          : 4:2:0
Bit depth                   : 8 bits
Scan type                   : Progressive
Bits/(Pixel*Frame)          : 0.053
Stream size                 : 1.20 GiB (90%)
Writing library             : x264 core 148 r2643 5c65704
Encoding settings           : cabac=1 / ref=5 / deblock=1:0:0 / analyse=0x3:0x113 / me=hex / subme=7 / psy=1 / psy_rd=1.00:0.00 / mixed_ref=1 / me_range=16 / chroma_me=1 / trellis=1 / 8x8dct=1 / cqm=0 / deadzone=21,11 / fast_pskip=1 / chroma_qp_offset=-2 / threads=8 / lookahead_threads=8 / sliced_threads=1 / slices=8 / nr=0 / decimate=1 / interlaced=0 / bluray_compat=0 / constrained_intra=0 / bframes=0 / weightp=2 / keyint=250 / keyint_min=25 / scenecut=40 / intra_refresh=0 / rc=2pass / mbtree=0 / bitrate=1216 / ratetol=1.0 / qcomp=0.60 / qpmin=0 / qpmax=69 / qpstep=4 / cplxblur=20.0 / qblur=0.5 / ip_ratio=1.40 / aq=1:1.00
Language                    : English

Audio
ID                          : 2
Format                      : AAC
Format/Info                 : Advanced Audio Codec
Format profile              : LC
Codec ID                    : mp4a-40-2
Duration                    : 2 h 21 min
Bit rate mode               : Constant
Bit rate                    : 128 kb/s
Channel(s)                  : 2 channels
Channel positions           : Front: L R
Sampling rate               : 48.0 kHz
Frame rate                  : 46.875 FPS (1024 SPF)
Compression mode            : Lossy
Stream size                 : 129 MiB (9%)
Language                    : Hindi
Default                     : Yes
Alternate group             : 1



 
                   
Category:Movies > Bollywood
Lang:Hindi
Total Size:1.33 GB
Info Hash:65280196654456dcc49f9bd4b3251967d96c5fe4
Added By:LatestHDMovies
Date Added:12-03-2018 15:23:26
Downloads:533

Download Torrent

Ratings:Not Yet Rated (Log in to rate it)


Tracker:
udp://tracker.openbittorrent.com:80/announce


File List: 


Comments

No comments still posted

Powered by 10 Hamsters v2-svn -|- Page Generated In 2.212763 secs.
-|- RSS Feed -|- Feed Info
Theme By: Nikkbu