Login
Username:
Password:
[Signup]
[Recover Account]


Browse Torrents

Poll


You must be logged in to view polls



Latest Torrents
Dil Se (1998) WEBT...
- [Size: 1.70 GB]

Ra Ra Krishnayya (...
- [Size: 1.26 GB]

[MARATHI] Farzand ...
- [Size: 1.19 GB]

Ancient.Aliens.S13...
- [Size: 1.13 GB]

18+.Ruin.Me.2017.7...
- [Size: 921.91 MB]


Torrent Details For "Zubaan 2016 Hindi 720p WEB-HD AAC 2.0 x264"

Zubaan 2016 Hindi 720p WEB-HD AAC 2.0 x264

Download this torrent | Magnet Download
Health:
Seeds: 1,969
Leechers: 2,306
Completed: 3,747 
Last Checked: 13-03-2018 09:25:17
External Torrent
Update Stats


Watch-Free-HD     Download

Poster
No poster


Watch-Free-HD     Download

Details
Name:Zubaan 2016 Hindi 720p WEB-HD AAC 2.0 x264
Description:

 


General
Format                                   : Matroska
Format version                           : Version 4 / Version 2
File size                                : 902 MiB
Duration                                 : 1 h 51 min
Overall bit rate                         : 1 131 kb/s

Video
ID                                       : 2
Format                                   : AVC
Format/Info                              : Advanced Video Codec
Format profile                           : [email protected]
Format settings                          : CABAC / 4 Ref Frames
Format settings, CABAC                   : Yes
Format settings, RefFrames               : 4 frames
Codec ID                                 : V_MPEG4/ISO/AVC
Duration                                 : 1 h 51 min
Bit rate                                 : 1 000 kb/s
Width                                    : 1 280 pixels
Height                                   : 548 pixels
Display aspect ratio                     : 2.35:1
Frame rate mode                          : Constant
Frame rate                               : 25.000 FPS
Color space                              : YUV
Chroma subsampling                       : 4:2:0
Bit depth                                : 8 bits
Scan type                                : Progressive
Bits/(Pixel*Frame)                       : 0.057
Stream size                              : 799 MiB (88%)
Writing library                          : x264 core 148 r2708 86b7198
Default                                  : Yes
Forced                                   : No

Audio
ID                                       : 1
Format                                   : AAC
Format/Info                              : Advanced Audio Codec
Format profile                           : LC
Codec ID                                 : A_AAC-2
Duration                                 : 1 h 51 min
Bit rate                                 : 128 kb/s
Channel(s)                               : 2 channels
Channel positions                        : Front: L R
Sampling rate                            : 44.1 kHz
Frame rate                               : 43.066 FPS (1024 SPF)
Compression mode                         : Lossy
Stream size                              : 102 MiB (11%)
Default                                  : Yes
Forced                                   : No



           


Category:Movies > Bollywood
Lang:Hindi
Total Size:902.42 MB
Info Hash:e91c23b6e22513b43dd559744a963ba53710e3ad
Added By:Freaky
Date Added:12-03-2018 10:12:51
Downloads:1,002

Download Torrent

Ratings:Not Yet Rated (Log in to rate it)


Tracker:
udp://tracker.pirateparty.gr:6969/announce

This Torrent also has backup trackers
URLSeedersLeechersCompleted
http://tracker.opentrackr.org/announce000
http://tracker.vanitycore.co:6969/announce157188280
http://public.popcorn-tracker.org:6969/announce174196258


File List: 


Comments

No comments still posted

Powered by 10 Hamsters v2-svn -|- Page Generated In 3.843884 secs.
-|- RSS Feed -|- Feed Info
Theme By: Nikkbu