Login
Username:
Password:
[Signup]
[Recover Account]


Browse Torrents

Poll


You must be logged in to view polls



Latest Torrents
Dil Se (1998) WEBT...
- [Size: 1.70 GB]

Ra Ra Krishnayya (...
- [Size: 1.26 GB]

[MARATHI] Farzand ...
- [Size: 1.19 GB]

Ancient.Aliens.S13...
- [Size: 1.13 GB]

18+.Ruin.Me.2017.7...
- [Size: 921.91 MB]


Torrent Details For "Maximum Convinction 2012 720p x264 Esub BluRay Dual Audio English Hindi GOPISAHI"

Maximum Convinction 2012 720p x264 Esub BluRay Dual Audio English Hindi GOPISAHI

Download this torrent | Magnet Download
Health:
Seeds: 0
Leechers: 0
Completed:
Last Checked: 12-03-2018 08:06:15
External Torrent
Update Stats


Watch-Free-HD     Download

Poster


iMDB
Imdb Picture Title: Maximum Conviction
Year: 2012
Runtime: 98 minutes
Votes: 5752
Rating: 4.9/10
Language: English
Country: USA
All Genres: Action, Adventure, Thriller
Plot Outline: When former black ops operative Cross (Seagal) and his partner Manning (Austin) are assigned to decommission an old prison, they must oversee the arrival of two mysterious female prisoners....
Director: Keoni Waxman
Writing By: Richard Beattie,
Produced By: Steve Austin,Binh Dang,Nadine DeBarros,Phillip B. Goldfine,Kevin Kasha,Scott Kennedy,Benjamin Sacks,Steven Seagal,John Short,Ian R. Smith,Keoni Waxman,
Music: Michael Richard Plowman
Cast:
Steven Seagal as Cross
Steve Austin as Manning
Michael Paré as Chris Blake
Ian Robison as Warden Samuels
Aliyah O'Brien as Charlotte
Steph Song as Samantha
Michael Adamthwaite as Collins
Bren Foster as Bradley
Toby Levins as Davies
Dean Redman as Jones
Trailers:
Maximum Conviction


Watch-Free-HD     Download

Details
Name:Maximum Convinction 2012 720p x264 Esub BluRay Dual Audio English Hindi GOPISAHI
Description:

Format : Matroska
Format version : Version 4 / Version 2
File size : 544 MiB
Duration : 1 h 37 min
Overall bit rate : 778 kb/s
Movie name : Maximum Convinction 2012 GOPISAHI

Video
Format : AVC
Codec ID : V_MPEG4/ISO/AVC
Duration : 1 h 37 min
Bit rate : 600 kb/s
Width : 1 280 pixels
Height : 720 pixels
Display aspect ratio : 16:9
Frame rate mode : Constant
Frame rate : 23.943 FPS
Stream size : 419 MiB (77%)
Title : GOPISAHI
Writing library : x264 core 155 r2893 b00bcaf

Audio #1
Format : AAC
Duration : 1 h 37 min
Bit rate : 87.0 kb/s
Channel(s) : 6 channels
Channel positions : Front: L C R, Side: L R, LFE
Sampling rate : 44.1 kHz
Frame rate : 43.066 FPS (1024 SPF)
Compression mode : Lossy
Stream size : 60.8 MiB (11%)
Title : GOPISAHI
Language : English

Audio #2
Format : AAC
Duration : 1 h 37 min
Bit rate : 88.3 kb/s
Channel(s) : 6 channels
Channel positions : Front: L C R, Side: L R, LFE
Sampling rate : 44.1 kHz
Frame rate : 43.066 FPS (1024 SPF)
Compression mode : Lossy
Stream size : 61.7 MiB (11%)
Language : Hindi

Text
Language : English


Category:Movies > Bollywood
Lang:Hindi
Total Size:543.61 MB
Info Hash:facde8f6d4098e9663ce1db1e08f5aed70650599
Added By:gopisahi
Date Added:12-03-2018 08:06:15
Downloads:433

Download Torrent

Ratings:Not Yet Rated (Log in to rate it)


Tracker:
udp://9.rarbg.com:2740/announce


File List: 


Comments

No comments still posted

Powered by 10 Hamsters v2-svn -|- Page Generated In 0.658083 secs.
-|- RSS Feed -|- Feed Info
Theme By: Nikkbu