Login
Username:
Password:
[Signup]
[Recover Account]


Browse Torrents

Poll


You must be logged in to view polls



Latest Torrents
Dil Se (1998) WEBT...
- [Size: 1.70 GB]

Ra Ra Krishnayya (...
- [Size: 1.26 GB]

[MARATHI] Farzand ...
- [Size: 1.19 GB]

Ancient.Aliens.S13...
- [Size: 1.13 GB]

18+.Ruin.Me.2017.7...
- [Size: 921.91 MB]


Torrent Details For "3G - A Killer Connection (2013) WEBHD 720p Untouched X264 Mp3 - LatestHDMovies"

3G - A Killer Connection (2013) WEBHD 720p Untouched X264 Mp3 - LatestHDMovies

Download this torrent | Magnet Download
Health:
Seeds: 185
Leechers: 182
Completed: 479 
Last Checked: 13-03-2018 04:16:50
External Torrent
Update Stats


Watch-Free-HD     Download

Poster


iMDB
Imdb Picture Title: 3G - A Killer Connection
Year: 2013
Runtime: 125 minutes
Votes: 987
Rating: 3.6/10
Language: English, Hindi
Country: India
All Genres: Horror, Sci-Fi, Thriller
Plot Outline: Sam purchase's a second hand cellphone and starts getting mysterious calls.
Director: Sheershak Anand
Shantanu Ray Chhibber
Writing By: Sheershak Anand,Shantanu Ray Chhibber,Sumit Saxena,
Produced By: Sunil Lulla,Sanjay Mehta,Mehjabeen Raja,Vikram Rajani,
Music: Amar Mohile
Cast:
Neil Nitin Mukesh as Sam
Sonal Chauhan as Sheena
Mrinalini Sharma as Chaima
Asheesh Kapur as Mong
Prithviraj Choudhary as Joe
Kaajal Vashisht as Diana
Sailesh Singh as Mobile phone shopkeeper
Vishaarad Sharan as Jaden
Konrad Thorpe as Max
Kayaan C. Contractor as Pearl


Watch-Free-HD     Download

Details
Name:3G - A Killer Connection (2013) WEBHD 720p Untouched X264 Mp3 - LatestHDMovies
Description:





[[[[[>>SAMPLE<<]]]]]
 http://openload.co/f/r6hSPWK_...vies___TeamLHDM-.mp4







General
Complete name               : 3G - A Killer Connection (2013) WEBHD 720p Untouched X264 Mp3 - LatestHDMovies.MP4
Format                      : MPEG-4
Format profile              : Base Media
Codec ID                    : isom (isom/iso2/avc1/mp41)
File size                   : 1.39 GiB
Duration                    : 2 h 3 min
Overall bit rate mode       : Variable
Overall bit rate            : 1 614 kb/s
Movie name                  : LatestHDMovies | TeamLHDM
Writing application         : Lavf57.71.100
Cover                       : Yes

Video
ID                          : 1
Format                      : AVC
Format/Info                 : Advanced Video Codec
Format profile              : [email protected]
Format settings             : CABAC / 4 Ref Frames
Format settings, CABAC      : Yes
Format settings, ReFrames   : 4 frames
Codec ID                    : avc1
Codec ID/Info               : Advanced Video Coding
Duration                    : 2 h 3 min
Bit rate                    : 1 359 kb/s
Width                       : 1 280 pixels
Height                      : 720 pixels
Display aspect ratio        : 16:9
Frame rate mode             : Constant
Frame rate                  : 24.000 FPS
Color space                 : YUV
Chroma subsampling          : 4:2:0
Bit depth                   : 8 bits
Scan type                   : Progressive
Bits/(Pixel*Frame)          : 0.061
Stream size                 : 1.17 GiB (84%)
Writing library             : x264 core 152 r19 ba24899
Encoding settings           : cabac=1 / ref=2 / deblock=1:0:0 / analyse=0x3:0x113 / me=hex / subme=6 / psy=1 / psy_rd=1.00:0.00 / mixed_ref=1 / me_range=16 / chroma_me=1 / trellis=1 / 8x8dct=1 / cqm=0 / deadzone=21,11 / fast_pskip=1 / chroma_qp_offset=-2 / threads=22 / lookahead_threads=3 / sliced_threads=0 / nr=0 / decimate=1 / interlaced=0 / bluray_compat=0 / constrained_intra=0 / bframes=3 / b_pyramid=2 / b_adapt=1 / b_bias=0 / direct=1 / weightb=1 / open_gop=0 / weightp=1 / keyint=120 / keyint_min=12 / scenecut=40 / intra_refresh=0 / rc_lookahead=30 / rc=crf / mbtree=1 / crf=23.0 / qcomp=0.60 / qpmin=0 / qpmax=69 / qpstep=4 / vbv_maxrate=2600 / vbv_bufsize=5200 / crf_max=0.0 / nal_hrd=none / filler=0 / ip_ratio=1.40 / aq=1:1.00

Audio
ID                          : 2
Format                      : AAC
Format/Info                 : Advanced Audio Codec
Format profile              : LC
Codec ID                    : mp4a-40-2
Duration                    : 2 h 3 min
Bit rate mode               : Variable
Bit rate                    : 247 kb/s
Maximum bit rate            : 256 kb/s
Channel(s)                  : 2 channels
Channel positions           : Front: L R
Sampling rate               : 44.1 kHz
Frame rate                  : 43.066 FPS (1024 SPF)
Compression mode            : Lossy
Stream size                 : 218 MiB (15%)
Default                     : Yes
Alternate group             : 1



 
               
Category:Movies > Bollywood
Lang:Hindi
Total Size:1.39 GB
Info Hash:b5109e07cedb947df00219d0a43be0361268d940
Added By:LatestHDMovies
Date Added:12-03-2018 03:10:52
Downloads:458

Download Torrent

Ratings:Not Yet Rated (Log in to rate it)


Tracker:
udp://tracker.openbittorrent.com:80/announce


File List: 


Comments

No comments still posted

Powered by 10 Hamsters v2-svn -|- Page Generated In 1.711974 secs.
-|- RSS Feed -|- Feed Info
Theme By: Nikkbu