Login
Username:
Password:
[Signup]
[Recover Account]


Browse Torrents

Poll


You must be logged in to view polls



Latest Torrents
The Gambler (2014)...
- [Size: 1.09 GB]

Duck Duck Goose 20...
- [Size: 1.31 GB]

Mamma Mia! Here We...
- [Size: 1.37 GB]

Duck.Duck.Goose.20...
- [Size: 1.20 GB]

Mass V s Class (Ab...
- [Size: 982.55 MB]


Torrent Details For "Just.Getting.Started.2017.BRRip.XviD.AC3.LLG"

Just.Getting.Started.2017.BRRip.XviD.AC3.LLG

Download this torrent | Magnet Download
Health:
Seeds: 0
Leechers: 0
Completed:
Last Checked: 15-02-2018 02:02:37
External Torrent
Update Stats


Watch-Free-HD     Download

Poster
No poster


iMDB
Imdb Picture Title: Just Getting Started
Year: 2017
Runtime: 91 minutes
Votes: 754
Rating: 3.9/10
Language: English
Country: USA
All Genres: Action, Comedy
Plot Outline: A two-hander action comedy in the vein of Midnight Run (1988), about an ex-F.B.I. Agent (Tommy Lee Jones) and an ex-mob lawyer in the Witness Protection Program (Morgan Freeman) having to put aside their petty rivalry on the golf course to fend off a mob hit.
Director: Ron Shelton
Writing By: Ron Shelton,
Produced By: Charles V. Bender,Kellie Davis,Bill Gerber,Jeffrey Lampert,John Mass,Philip Moross,Steve Richards,Alan Simpson,
Music: Alex Wurman
Cast:
Morgan Freeman as Duke
Glenne Headly as Margarite
Tommy Lee Jones as Leo
Jane Seymour as Delilah
Rene Russo as Suzie
Joe Pantoliano as Joey
Elizabeth Ashley as Lily
Sheryl Lee Ralph as Roberta
Nick Peine as Jimmy
Graham Beckel as Burt
Trailers:
In Theaters Dec. 8
Official Trailer


Watch-Free-HD     Download

Details
Name:Just.Getting.Started.2017.BRRip.XviD.AC3.LLG
Description:
******************************Thumbnail:**********************

 

******************************Screenshots:********************

 Screenshot 1

 Screenshot 2

 Screenshot 3

 Screenshot 4

 Screenshot 5

 Screenshot 6

 Screenshot 7

 Screenshot 8

 Screenshot 9

 Screenshot 0

**************************************************************

Complete name                            : Just.Getting.Started.2017.BRRip.XviD.AC3.LLG.mp4
Format                                   : MPEG-4
Format profile                           : Base Media
Codec ID                                 : isom (isom/iso2/avc1/mp41)
File size                                : 947 MiB
Duration                                 : 1 h 30 min
Overall bit rate                         : 1 457 kb/s
Writing application                      : Lavf57.56.101

Video
ID                                       : 1
Format                                   : AVC
Format/Info                              : Advanced Video Codec
Format profile                           : [email protected]
Format settings                          : CABAC / 4 Ref Frames
Format settings, CABAC                   : Yes
Format settings, RefFrames               : 4 frames
Codec ID                                 : avc1
Codec ID/Info                            : Advanced Video Coding
Duration                                 : 1 h 30 min
Bit rate                                 : 1 200 kb/s
Width                                    : 720 pixels
Height                                   : 304 pixels
Display aspect ratio                     : 2.35:1
Frame rate mode                          : Constant
Frame rate                               : 23.976 (23976/1000) FPS
Color space                              : YUV
Chroma subsampling                       : 4:2:0
Bit depth                                : 8 bits
Scan type                                : Progressive
Bits/(Pixel*Frame)                       : 0.229
Stream size                              : 778 MiB (82%)

Audio
ID                                       : 2
Format                                   : AC-3
Format/Info                              : Audio Coding 3
Codec ID                                 : ac-3
Duration                                 : 1 h 30 min
Bit rate mode                            : Constant
Bit rate                                 : 256 kb/s
Channel(s)                               : 6 channels
Channel positions                        : Front: L C R, Side: L R, LFE
Sampling rate                            : 48.0 kHz
Frame rate                               : 31.250 FPS (1536 SPF)
Bit depth                                : 16 bits
Compression mode                         : Lossy
Stream size                              : 166 MiB (18%)
Service kind                             : Complete Main
Default                                  : Yes
Alternate group                          : 1

Category:Movies > DVDRips
Lang:English  English
Total Size:972.39 MB
Info Hash:63b60f4baf3382a8210563c11b7e87f002d6327f
Added By:LifeLongg
Date Added:15-02-2018 02:02:37
Downloads:35

Download Torrent

Ratings:Not Yet Rated (Log in to rate it)


Tracker:
udp://tracker.openbittorrent.com:80/announce


File List: 


Comments

No comments still posted

Powered by 10 Hamsters v2-svn -|- Page Generated In 0.038985 secs.
-|- RSS Feed -|- Feed Info
Theme By: Nikkbu