Login
Username:
Password:
[Signup]
[Recover Account]


Browse Torrents

Poll


You must be logged in to view polls



Latest Torrents
The Gambler (2014)...
- [Size: 1.09 GB]

Duck Duck Goose 20...
- [Size: 1.31 GB]

Mamma Mia! Here We...
- [Size: 1.37 GB]

Duck.Duck.Goose.20...
- [Size: 1.20 GB]

Mass V s Class (Ab...
- [Size: 982.55 MB]


Torrent Details For "Blade.Of.The.Immortal.2017.720p.BluRay.x264.LLG"

Blade.Of.The.Immortal.2017.720p.BluRay.x264.LLG

Download this torrent | Magnet Download
Health:
Seeds: 14
Leechers: 7
Completed: 19 
Last Checked: 14-02-2018 19:54:46
External Torrent
Update Stats


Watch-Free-HD     Download

Poster
No poster


iMDB
Imdb Picture Original Title: Mugen no jûnin
Title: Blade of the Immortal
Year: 2017
Runtime: 140 minutes
Votes: 830
Rating: 7.3/10
Language: Japanese
Country: Japan, UK
All Genres: Action, Drama
Plot Outline: Manji, a highly skilled samurai, becomes cursed with immortality after a legendary battle. Haunted by the brutal murder of his sister, Manji knows that only fighting evil will regain his soul. He promises to help a young girl named Rin avenge her parents, who were killed by a group of master swordsmen led by ruthless warrior Anotsu. The mission will change Manji in ways he could never imagine - ...
Tagline: To save her life he will take a thousand others.
Director: Takashi Miike
Writing By: Hiroaki Samura,Tetsuya Oishi,
Produced By: Tetsu Fujimura,Alainée Kent,Hiroyoshi Koiwai,Shigeji Maeda,Misako Saka,Jeremy Thomas,Peter Watson,
Music: Kôji Endô
Cast:
Takuya Kimura as Manji
Hana Sugisaki as Rin Asano / Machi, Manji's sister
Sôta Fukushi as Anotsu Kagehisa
Hayato Ichihara as Shira
Erika Toda as Makie Otono-Tachibana
Kazuki Kitamura as Sabato Kuroi
Chiaki Kuriyama as Hyakurin
Shinnosuke Mitsushima as Taito Magatsu
Ken Kaneko as
Yôko Yamamoto as Yaobikuni
Trailers:
Official Trailer


Watch-Free-HD     Download

Details
Name:Blade.Of.The.Immortal.2017.720p.BluRay.x264.LLG
Description:
******************************Thumbnail:**********************

 

******************************Screenshots:********************

 Screenshot 1

 Screenshot 2

 Screenshot 3

 Screenshot 4

 Screenshot 5

 Screenshot 6

 Screenshot 7

 Screenshot 8

 Screenshot 9

 Screenshot 0

**************************************************************

Complete name                            : Blade.Of.The.Immortal.2017.720p.BluRay.x264.LLG.mp4
Format                                   : MPEG-4
Format profile                           : Base Media
Codec ID                                 : isom (isom/iso2/avc1/mp41)
File size                                : 1.01 GiB
Duration                                 : 2 h 20 min
Overall bit rate                         : 1 026 kb/s
Writing application                      : Lavf57.56.101

Video
ID                                       : 1
Format                                   : AVC
Format/Info                              : Advanced Video Codec
Format profile                           : [email protected]
Format settings                          : CABAC / 4 Ref Frames
Format settings, CABAC                   : Yes
Format settings, RefFrames               : 4 frames
Codec ID                                 : avc1
Codec ID/Info                            : Advanced Video Coding
Duration                                 : 2 h 20 min
Bit rate                                 : 900 kb/s
Width                                    : 1 280 pixels
Height                                   : 534 pixels
Display aspect ratio                     : 2.40:1
Original display aspect ratio            : 2.40:1
Frame rate mode                          : Constant
Frame rate                               : 23.976 (23976/1000) FPS
Color space                              : YUV
Chroma subsampling                       : 4:2:0
Bit depth                                : 8 bits
Scan type                                : Progressive
Bits/(Pixel*Frame)                       : 0.055
Stream size                              : 898 MiB (87%)

Audio
ID                                       : 2
Format                                   : AAC
Format/Info                              : Advanced Audio Codec
Format profile                           : LC
Codec ID                                 : mp4a-40-2
Duration                                 : 2 h 20 min
Bit rate mode                            : Constant
Bit rate                                 : 129 kb/s
Channel(s)                               : 2 channels
Channel positions                        : Front: L R
Sampling rate                            : 48.0 kHz
Frame rate                               : 46.875 FPS (1024 SPF)
Compression mode                         : Lossy
Stream size                              : 130 MiB (13%)
Default                                  : Yes
Alternate group                          : 1

Category:Movies > 720P Bluray
Lang:Chinese
Total Size:1.01 GB
Info Hash:4db01e25053314e4ffac38d4b725cc62a5c4a614
Added By:LifeLongg
Date Added:14-02-2018 16:56:13
Downloads:123

Download Torrent

Ratings:Not Yet Rated (Log in to rate it)


Tracker:
udp://tracker.openbittorrent.com:80/announce


File List: 


Comments

No comments still posted

Powered by 10 Hamsters v2-svn -|- Page Generated In 0.032491 secs.
-|- RSS Feed -|- Feed Info
Theme By: Nikkbu