Login
Username:
Password:
[Signup]
[Recover Account]


Browse Torrents

Poll


You must be logged in to view polls



Latest Torrents
The.Workshop.2017....
- [Size: 679.94 MB]

Isle of Dogs (2018...
- [Size: 785.81 MB]

The.Jim.Jefferies....
- [Size: 236.19 MB]

WWE Smackdown Live...
- [Size: 477.11 MB]

Expedition.Unknown...
- [Size: 968.41 MB]


Torrent Details For "Bomb.City.2017.720p.BluRay.x264.AAC.LLG"

Bomb.City.2017.720p.BluRay.x264.AAC.LLG

Download this torrent | Magnet Download
Health:
Seeds: 3
Leechers: 3
Completed:
Last Checked: 14-02-2018 12:31:27
External Torrent
Update Stats


Watch-Free-HD     Download

Poster
No poster


iMDB
Imdb Picture Title: Bomb City
Year: 2017
Runtime: 95 minutes
Votes: 786
Rating: 7.5/10
Language: English
Country: USA
All Genres: Action, Crime, Drama, Thriller, Western
Plot Outline: A crime-drama, about the cultural aversion of a group of punk rockers in a conservative Texas town. Their ongoing battle with a rival, more-affluent clique leads to a controversial hate crime that questions the morality of American justice.
Tagline: The more I see of man, the more I like dogs.
Director: Jameson Brooks
Writing By: Jameson Brooks,Sheldon Chick,
Produced By: Greg Anderson,Matt Chiasson,Cody Chick,Sheldon Chick,Rick Cruz,Chad Cunningham,Major Dodge,Shelle Graves,Shawn Gros,Dane Holuby,Libby Hunt,Isaiah LaBorde,Ron Lester,Adam Litwin,Elizabeth Martin,Henry Melton,Brian Osborn,Jud Preskitt,Norman Preskitt,Jax Pyle,Mark Rosenberg,Steve Silver,Vance Sparks,Parker Vandergriff,Bryan Walior,
Music: Cody Chick Sheldon Chick
Cast:
Dave Davis as Brian
Glenn Morshower as Cameron Wilson
Logan Huffman as Ricky
Lorelei Linklater as Rome
Eddie Hassell as Oles
Henry Knotts as King
Dominic Ryan Gabriel as Jason
Luke Shelton as Cody Cates
Maemae Renfrow as Jade
Michael Seitz as Davis
Trailers:
Bomb City - Official Trailer


Watch-Free-HD     Download

Details
Name:Bomb.City.2017.720p.BluRay.x264.AAC.LLG
Description:
******************************Thumbnail:**********************

 

******************************Screenshots:********************

 Screenshot 1

 Screenshot 2

 Screenshot 3

 Screenshot 4

 Screenshot 5

 Screenshot 6

 Screenshot 7

 Screenshot 8

 Screenshot 9

 Screenshot 0

Complete name                            : Bomb.City.2017.720p.BluRay.x264.AAC.LLG.mp4
Format                                   : MPEG-4
Format profile                           : Base Media
Codec ID                                 : isom (isom/iso2/avc1/mp41)
File size                                : 938 MiB
Duration                                 : 1 h 38 min
Overall bit rate                         : 1 332 kb/s
Writing application                      : Lavf57.56.101

Video
ID                                       : 1
Format                                   : AVC
Format/Info                              : Advanced Video Codec
Format profile                           : [email protected]
Format settings                          : CABAC / 4 Ref Frames
Format settings, CABAC                   : Yes
Format settings, RefFrames               : 4 frames
Codec ID                                 : avc1
Codec ID/Info                            : Advanced Video Coding
Duration                                 : 1 h 38 min
Bit rate                                 : 1 200 kb/s
Width                                    : 1 280 pixels
Height                                   : 720 pixels
Display aspect ratio                     : 2.40:1
Original display aspect ratio            : 2.40:1
Frame rate mode                          : Constant
Frame rate                               : 23.976 (23976/1000) FPS
Color space                              : YUV
Chroma subsampling                       : 4:2:0
Bit depth                                : 8 bits
Scan type                                : Progressive
Bits/(Pixel*Frame)                       : 0.054
Stream size                              : 844 MiB (90%)

Audio
ID                                       : 2
Format                                   : AAC
Format/Info                              : Advanced Audio Codec
Format profile                           : LC
Codec ID                                 : mp4a-40-2
Duration                                 : 1 h 38 min
Duration_LastFrame                       : -8 ms
Bit rate mode                            : Constant
Bit rate                                 : 129 kb/s
Channel(s)                               : 2 channels
Channel positions                        : Front: L R
Sampling rate                            : 48.0 kHz
Frame rate                               : 46.875 FPS (1024 SPF)
Compression mode                         : Lossy
Stream size                              : 90.7 MiB (10%)
Default                                  : Yes
Alternate group                          : 1




Even it's in my dreams
Category:Movies > 720P Bluray
Lang:English  English
Total Size:943.66 MB
Info Hash:eb72bdddf090846b6b36e2111bae0113bc7c8d2d
Added By:LifeLongg
Date Added:14-02-2018 12:18:18
Downloads:103

Download Torrent

Ratings:Not Yet Rated (Log in to rate it)


Tracker:
udp://tracker.openbittorrent.com:80/announce


File List: 


Comments

No comments still posted

Powered by 10 Hamsters v2-svn -|- Page Generated In 0.203913 secs.
-|- RSS Feed -|- Feed Info
Theme By: Nikkbu