Login
Username:
Password:
[Signup]
[Recover Account]


Browse Torrents

Poll


You must be logged in to view polls



Latest Torrents
The Gambler (2014)...
- [Size: 1.09 GB]

Duck Duck Goose 20...
- [Size: 1.31 GB]

Mamma Mia! Here We...
- [Size: 1.37 GB]

Duck.Duck.Goose.20...
- [Size: 1.20 GB]

Mass V s Class (Ab...
- [Size: 982.55 MB]


Torrent Details For "Defective 2018 1080p WEB-DL DD 5.1 x264"

Defective 2018 1080p WEB-DL DD 5.1 x264

Download this torrent | Magnet Download
Health:
Seeds: 18
Leechers: 58
Completed:
Last Checked: 14-02-2018 11:16:46
External Torrent
Update Stats


Watch-Free-HD     Download

Poster
No poster


Watch-Free-HD     Download

Details
Name:Defective 2018 1080p WEB-DL DD 5.1 x264
Description:

 

General
Format                      : Matroska
Format version              : Version 4 / Version 2
File size                   : 1.28 GiB
Duration                    : 1 h 42 min
Overall bit rate            : 1 795 kb/s

Video
ID                          : 1
Format                      : AVC
Format/Info                 : Advanced Video Codec
Format profile              : [email protected]
Format settings             : CABAC / 4 Ref Frames
Format settings, CABAC      : Yes
Format settings, ReFrames   : 4 frames
Codec ID                    : V_MPEG4/ISO/AVC
Duration                    : 1 h 42 min
Bit rate                    : 1 600 kb/s
Width                       : 1 920 pixels
Height                      : 1 032 pixels
Display aspect ratio        : 1.85:1
Frame rate mode             : Constant
Frame rate                  : 23.976 (24000/1001) FPS
Color space                 : YUV
Chroma subsampling          : 4:2:0
Bit depth                   : 8 bits
Scan type                   : Progressive
Bits/(Pixel*Frame)          : 0.034
Stream size                 : 1.10 GiB (86%)
Writing library             : x264 core 148 r2708 86b7198
Default                     : Yes
Forced                      : No

Audio
ID                          : 2
Format                      : AC-3
Format/Info                 : Audio Coding 3
Codec ID                    : A_AC3
Duration                    : 1 h 42 min
Bit rate mode               : Constant
Bit rate                    : 256 kb/s
Channel(s)                  : 6 channels
Channel positions           : Front: L C R, Side: L R, LFE
Sampling rate               : 48.0 kHz
Frame rate                  : 31.250 FPS (1536 SPF)
Bit depth                   : 16 bits
Compression mode            : Lossy
Stream size                 : 187 MiB (14%)
Language                    : English
Service kind                : Complete Main
Default                     : Yes
Forced                      : No





 
 
 
 
 
 
 

Category:Movies > HDRips
Lang:English  English
Total Size:1.28 GB
Info Hash:60e9c86cfae0389ac849f52631ffabe3fb6c057d
Added By:Freaky
Date Added:14-02-2018 11:16:07
Downloads:73

Download Torrent

Ratings:Not Yet Rated (Log in to rate it)


Tracker:
udp://tracker.coppersurfer.tk:6969/announce


File List: 


Comments

No comments still posted

Powered by 10 Hamsters v2-svn -|- Page Generated In 4.640089 secs.
-|- RSS Feed -|- Feed Info
Theme By: Nikkbu