Login
Username:
Password:
[Signup]
[Recover Account]


Browse Torrents

Poll


You must be logged in to view polls



Latest Torrents
Most Beautiful Isl...
- [Size: 1.57 GB]

Marrowbone 2017 10...
- [Size: 4.48 GB]

WinZip Registry Op...
- [Size: 19.70 MB]

VSO ConvertXtoDVD ...
- [Size: 1.68 MB]

TweakBit PCRepairK...
- [Size: 14.99 MB]


Torrent Details For "1920 (2008) HDRip 720p Hindi x264 ACC -LatestHDMovies"

1920 (2008) HDRip 720p Hindi x264 ACC -LatestHDMovies

Download this torrent | Magnet Download
Health:
Seeds: 18
Leechers: 26
Completed: 24 
Last Checked: 14-02-2018 15:07:52
External Torrent
Update Stats


Watch-Free-HD     Download

Poster


iMDB
Imdb Picture Title: 1920
Year: 2008
Runtime: 138 minutes
Votes: 1987
Rating: 6.4/10
Language: Hindi
Country: India
All Genres: Drama, Horror, Mystery, Romance, Thriller
Plot Outline: After forsaking his family and religion, a husband finds his wife is demoniacally possessed.
Tagline: A Love Made in Heaven...A Revenge Born in Hell...
Director: Vikram Bhatt
Writing By: Vikram Bhatt,Vikram Bhatt,Girish Dhamija,Dheeraj Rattan,Sameer,
Produced By: Vikram Bhatt,Amita Bishnoi,Ashwani Chopra,Bhagwanti Gabrani,Surendra Sharma,Manmohan Singh,
Music: Salim Merchant Raju Rao Salim-Sulaiman Adnan Sami
Plot:

A devotee of Bhagwan Shri Hanuman, Arjun Singh Rathod is in love with Lisa, a Christian, who was sired by an Indian mother and Caucasian father, runs into problems with his father, who wants him to marry a Hindu. He decides to break all ties with his family, both turn atheist, get married, and re-locate to live in 1920s Bombay. The duo then re-locate to renovate a mansion in Palanpur. Shortly after their arrival Lisa suspects that there is something odd about a particular room in the mansion but Arjun dismisses this. He will soon regret this, as well of forsaking their respective religions, after he finds Lisa possessed by what appears to be a demonic and seemingly invincible male entity.

- Written by rAjOo ([email protected])

After forsaking his family and religion, a husband finds his wife is demoniacally possessed.

- Written by rAjOo ([email protected])
Cast:
Rajniesh Duggall as Arjun Singh Rathod
Adah Sharma as Lisa Singh Rathod
Anjori Alagh as Gayetri
Raj Zutshi as Father Thomas
Vipin Sharma as Servant
Amin Hajee as
Ashok Beniwal as Freedom Fighter King
Bob Brahmbhatt as
Ashish Pradhan as
Rakhi Sawant as Dancer / Singer


Watch-Free-HD     Download

Details
Name:1920 (2008) HDRip 720p Hindi x264 ACC -LatestHDMovies
Description:
General
Complete name               : 1920 (2008) HDRip  720p Hindi x264 ACC -LatestHDMovies.MP4
Format                      : MPEG-4
Format profile              : Base Media / Version 2
Codec ID                    : mp42 (isom/iso2/avc1/mp41)
File size                   : 1.19 GiB
Duration                    : 2 h 11 min
Overall bit rate mode       : Variable
Overall bit rate            : 1 301 kb/s
Movie name                  : LatestHDMovies -::-1920 (2008) Hindi Hdrip 720p
Writing application         : HandBrake 0.10.1 2015030800
Cover                       : Yes

Video
ID                          : 1
Format                      : AVC
Format/Info                 : Advanced Video Codec
Format profile              : [email protected]
Format settings             : CABAC / 4 Ref Frames
Format settings, CABAC      : Yes
Format settings, ReFrames   : 4 frames
Codec ID                    : avc1
Codec ID/Info               : Advanced Video Coding
Duration                    : 2 h 11 min
Bit rate                    : 1 152 kb/s
Width                       : 1 280 pixels
Height                      : 544 pixels
Display aspect ratio        : 2.35:1
Frame rate mode             : Variable
Frame rate                  : 23.976 FPS
Minimum frame rate          : 21.277 FPS
Maximum frame rate          : 24.390 FPS
Color space                 : YUV
Chroma subsampling          : 4:2:0
Bit depth                   : 8 bits
Scan type                   : Progressive
Bits/(Pixel*Frame)          : 0.069
Stream size                 : 1.07 GiB (90%)
Writing library             : x264 core 142 r2491 24e4fed
Encoding settings           : cabac=1 / ref=2 / deblock=1:0:0 / analyse=0x3:0x113 / me=hex / subme=6 / psy=1 / psy_rd=1.00:0.00 / mixed_ref=1 / me_range=16 / chroma_me=1 / trellis=1 / 8x8dct=1 / cqm=0 / deadzone=21,11 / fast_pskip=1 / chroma_qp_offset=-2 / threads=12 / lookahead_threads=2 / sliced_threads=0 / nr=0 / decimate=1 / interlaced=0 / bluray_compat=0 / constrained_intra=0 / bframes=3 / b_pyramid=2 / b_adapt=1 / b_bias=0 / direct=1 / weightb=1 / open_gop=0 / weightp=1 / keyint=240 / keyint_min=24 / scenecut=40 / intra_refresh=0 / rc_lookahead=30 / rc=abr / mbtree=1 / bitrate=1152 / ratetol=1.0 / qcomp=0.60 / qpmin=0 / qpmax=69 / qpstep=4 / vbv_maxrate=17500 / vbv_bufsize=17500 / nal_hrd=none / filler=0 / ip_ratio=1.40 / aq=1:1.00
Color range                 : Limited
Color primaries             : BT.709
Transfer characteristics    : BT.709
Matrix coefficients         : BT.709

Audio
ID                          : 2
Format                      : AAC
Format/Info                 : Advanced Audio Codec
Format profile              : LC
Codec ID                    : mp4a-40-2
Duration                    : 2 h 11 min
Bit rate mode               : Variable
Bit rate                    : 128 kb/s
Channel(s)                  : 2 channels
Channel positions           : Front: L R
Sampling rate               : 48.0 kHz
Frame rate                  : 46.875 FPS (1024 SPF)
Compression mode            : Lossy
Stream size                 : 120 MiB (10%)
Title                       : Stereo / Stereo
Default                     : Yes
Alternate group             : 1




 
               
Category:Movies > Bollywood
Lang:Hindi
Total Size:1.19 GB
Info Hash:6f27b3a43804f0f97e83daa35e13a601efd12cf7
Added By:LatestHDMovies
Date Added:14-02-2018 02:25:34
Downloads:392

Download Torrent

Ratings:Not Yet Rated (Log in to rate it)


Tracker:
udp://tracker.openbittorrent.com:80/announce


File List: 


Comments

No comments still posted

Powered by 10 Hamsters v2-svn -|- Page Generated In 1.339363 secs.
-|- RSS Feed -|- Feed Info
Theme By: Nikkbu