Login
Username:
Password:
[Signup]
[Recover Account]


Browse Torrents

Poll


You must be logged in to view polls



Latest Torrents
Whose.Line.is.it.A...
- [Size: 244.45 MB]

Wicked.Tuna.Outer....
- [Size: 1.52 GB]

Penn.and.Teller.Fo...
- [Size: 353.21 MB]

Penn.and.Teller.Fo...
- [Size: 595.12 MB]

[18+] Karenjit Kau...
- [Size: 2.27 GB]


Torrent Details For "Thelma.2017.1080p.BluRay.x264.AAC.LLG"

Thelma.2017.1080p.BluRay.x264.AAC.LLG

Download this torrent | Magnet Download
Health:
Seeds: 0
Leechers: 0
Completed:
Last Checked: 14-02-2018 00:56:30
External Torrent
Update Stats


Watch-Free-HD     Download

Poster
No poster


iMDB
Imdb Picture Title: Thelma
Year: 2017
Runtime: 116 minutes
Votes: 8087
Rating: 7.2/10
Language: Norwegian
Country: Norway, France, Denmark, Sweden
All Genres: Drama, Fantasy, Mystery, Romance, Thriller
Plot Outline: A confused religious girl tries to deny her feelings for a female friend who's in love with her. This causes her suppressed subconsciously-controlled psychokinetic powers to reemerge as seizures with devastating results.
Tagline: Sometimes the most terrifying discovery is who you really are.
Director: Joachim Trier
Writing By: Eskil Vogt,Joachim Trier,
Produced By: Stephan Apelgren,Sigve Endresen,Tomas Eskilsson,Thomas Gammeltoft,Fredrik Heinig,Eva Jakobsen,Mikkel Jersin,Arild Karlsen,Anne Labadie,Jean Labadie,Mone Mikkelsen,Mattias Nohrborg,Thomas Pibarot,Katrin Pors,Thomas Robsahm,Natalya Sarch,Joachim Trier,Eskil Vogt,
Music: Ola Fløttum
Cast:
Eili Harboe as Thelma
Kaya Wilkins as Anja
Henrik Rafaelsen as Trond
Ellen Dorrit Petersen as Unni
Grethe Eltervåg as Thelma 6 år
Marte Magnusdotter Solem as Nevrolog
Anders Mossling as Dr. Paulsson
Vanessa Borgli as Anjas mor
Steinar Klouman Hallert as Kristoffer
Ingrid Giæver as Julie
Trailers:
Official Trailer


Watch-Free-HD     Download

Details
Name:Thelma.2017.1080p.BluRay.x264.AAC.LLG
Description:
******************************Thumbnail:**********************

 

******************************Screenshots:********************

 Screenshot 1

 Screenshot 2

 Screenshot 3

 Screenshot 4

 Screenshot 5

 Screenshot 6

 Screenshot 7

 Screenshot 8

 Screenshot 9

 Screenshot 0

Complete name                            : Thelma.2017.1080p.BluRay.x264.AAC.LLG.mp4
Format                                   : MPEG-4
Format profile                           : Base Media
Codec ID                                 : isom (isom/iso2/avc1/mp41)
File size                                : 1.07 GiB
Duration                                 : 1 h 56 min
Overall bit rate                         : 1 326 kb/s
Writing application                      : Lavf57.56.101

Video
ID                                       : 1
Format                                   : AVC
Format/Info                              : Advanced Video Codec
Format profile                           : [email protected]
Format settings                          : CABAC / 4 Ref Frames
Format settings, CABAC                   : Yes
Format settings, RefFrames               : 4 frames
Codec ID                                 : avc1
Codec ID/Info                            : Advanced Video Coding
Duration                                 : 1 h 56 min
Bit rate                                 : 1 200 kb/s
Width                                    : 1 920 pixels
Height                                   : 800 pixels
Display aspect ratio                     : 2.40:1
Frame rate mode                          : Constant
Frame rate                               : 23.976 (23976/1000) FPS
Color space                              : YUV
Chroma subsampling                       : 4:2:0
Bit depth                                : 8 bits
Scan type                                : Progressive
Bits/(Pixel*Frame)                       : 0.033
Stream size                              : 988 MiB (90%)

Audio
ID                                       : 2
Format                                   : AAC
Format/Info                              : Advanced Audio Codec
Format profile                           : LC
Codec ID                                 : mp4a-40-2
Duration                                 : 1 h 56 min
Bit rate mode                            : Constant
Bit rate                                 : 129 kb/s
Channel(s)                               : 2 channels
Channel positions                        : Front: L R
Sampling rate                            : 48.0 kHz
Frame rate                               : 46.875 FPS (1024 SPF)
Compression mode                         : Lossy
Stream size                              : 107 MiB (10%)
Default                                  : Yes
Alternate group                          : 1

Category:Movies > 1080P Bluray
Lang:English  English
Total Size:1.10 GB
Info Hash:83dc30f33f819da1f1a93b00e384d22b929a04ba
Added By:LifeLongg
Date Added:14-02-2018 00:56:30
Downloads:143

Download Torrent

Ratings:Not Yet Rated (Log in to rate it)


Tracker:
udp://tracker.openbittorrent.com:80/announce


File List: 


Comments

No comments still posted

Powered by 10 Hamsters v2-svn -|- Page Generated In 0.046451 secs.
-|- RSS Feed -|- Feed Info
Theme By: Nikkbu