Login
Username:
Password:
[Signup]
[Recover Account]


Browse Torrents

Poll


You must be logged in to view polls



Latest Torrents
Whose.Line.is.it.A...
- [Size: 244.45 MB]

Wicked.Tuna.Outer....
- [Size: 1.52 GB]

Penn.and.Teller.Fo...
- [Size: 353.21 MB]

Penn.and.Teller.Fo...
- [Size: 595.12 MB]

[18+] Karenjit Kau...
- [Size: 2.27 GB]


Torrent Details For "Parkers.Anchor.2017.1080p.WEB-DL.DD5.1.H264-FGT"

Parkers.Anchor.2017.1080p.WEB-DL.DD5.1.H264-FGT

Download this torrent | Magnet Download
Health:
Seeds: 4
Leechers: 0
Completed: 12 
Last Checked: 26-06-2018 21:12:47
External Torrent
Update Stats


Watch-Free-HD     Download

Poster
No poster


iMDB
Imdb Picture Title: Parker's Anchor
Year: 2017
Runtime: 110 minutes
Votes: 35
Rating: 6.0/10
Language: English
Country: USA
All Genres: Comedy, Drama, Romance
Plot Outline: Krystal Parker's life fell apart when she discovered she couldn't have children. Everything she knew was gone, - but Letting Go Is Just The Beginning.
Tagline: She's still a work in progress
Director: Marc Hampson
Writing By: Jennica Schwartzman,Jennica Schwartzman,Ryan Schwartzman,Ryan Schwartzman,
Produced By: Elizabeth Barnes,Aaron Fairley,Paul Pesnell,Jennica Schwartzman,Ryan Schwartzman,Deborah Lee Smith,Mark Landon Smith,Connor Wilkinson,
Cast:
Michael Beach as Clinton
Penny Johnson Jerald as Laurie
Chris Marquette as Jared
Brandon Keener as Andrew
Amy Argyle as Corinne
Sarah Colonna as Daniella
Claire Donald as Ashley
Jennica Schwartzman as Krystal Parker
Deborah Lee Smith as Liz
Mark Landon Smith as Vincent


Watch-Free-HD     Download

Details
Name:Parkers.Anchor.2017.1080p.WEB-DL.DD5.1.H264-FGT
Description:
MediaInfo

Video
ID                                       : 1
Format                                   : AVC
Format/Info                              : Advanced Video Codec
Format profile                           : [email protected]
Format settings                          : CABAC / 5 Ref Frames
Format settings, CABAC                   : Yes
Format settings, ReFrames                : 5 frames
Codec ID                                 : V_MPEG4/ISO/AVC
Duration                                 : 1 h 50 min
Bit rate                                 : 4 593 kb/s
Width                                    : 1 912 pixels
Height                                   : 804 pixels
Display aspect ratio                     : 2.40:1
Frame rate mode                          : Constant
Frame rate                               : 23.976 (24000/1001) FPS
Color space                              : YUV
Chroma subsampling                       : 4:2:0
Bit depth                                : 8 bits
Scan type                                : Progressive
Bits/(Pixel*Frame)                       : 0.125
Stream size                              : 3.55 GiB (92%)
Title                                    : Parkers.Anchor.2017.1080p.WEB-DL.DD5.1.H.264-FGT
Language                                 : English
Default                                  : Yes
Forced                                   : No
Color range                              : Limited
Color primaries                          : BT.709
Transfer characteristics                 : BT.709
Matrix coefficients                      : BT.709

Audio
ID                                       : 2
Format                                   : AC-3
Format/Info                              : Audio Coding 3
Codec ID                                 : A_AC3
Duration                                 : 1 h 50 min
Bit rate mode                            : Constant
Bit rate                                 : 384 kb/s
Channel(s)                               : 6 channels
Channel positions                        : Front: L C R, Side: L R, LFE
Sampling rate                            : 48.0 kHz
Frame rate                               : 31.250 FPS (1536 SPF)
Bit depth                                : 16 bits
Compression mode                         : Lossy
Stream size                              : 304 MiB (8%)
Title                                    : Parkers.Anchor.2017.1080p.WEB-DL.DD5.1.H.264-FGT
Language                                 : English
Service kind                             : Complete Main
Default                                  : Yes
Forced                                   : No

Text
ID                                       : 3
Format                                   : UTF-8
Codec ID                                 : S_TEXT/UTF8
Codec ID/Info                            : UTF-8 Plain Text
Duration                                 : 1 h 44 min
Bit rate                                 : 75 b/s
Count of elements                        : 1750
Stream size                              : 57.5 KiB (0%)
Language                                 : English
Default                                  : Yes
Forced                                   : No

Menu
00:00:00.000                             : en:1
00:07:33.000                             : en:2
00:19:30.000                             : en:3
00:27:30.000                             : en:4
00:38:23.000                             : en:5
00:44:25.000                             : en:6
00:57:11.000                             : en:7
01:02:10.000                             : en:8
01:16:12.000                             : en:9
01:28:04.000                             : en:10
01:44:25.000                             : en:11




 http://imagecurl.com/viewer.ph...4315700449945549.png
Category:Movies > WEB-HD
Lang:English  English
Total Size:3.84 GB
Info Hash:be4a554e59f01dfb0e798b3a250e7a3215c81abf
Added By:Agent47
Date Added:12-02-2018 13:57:13
Downloads:56

Download Torrent

Ratings:Not Yet Rated (Log in to rate it)


Tracker:
http://tracker.trackerfix.com:80/announce


File List: 


Comments

No comments still posted

Powered by 10 Hamsters v2-svn -|- Page Generated In 0.353686 secs.
-|- RSS Feed -|- Feed Info
Theme By: Nikkbu