Login
Username:
Password:
[Signup]
[Recover Account]


Browse Torrents

Poll


You must be logged in to view polls



Latest Torrents
Most Beautiful Isl...
- [Size: 1.57 GB]

Marrowbone 2017 10...
- [Size: 4.48 GB]

WinZip Registry Op...
- [Size: 19.70 MB]

VSO ConvertXtoDVD ...
- [Size: 1.68 MB]

TweakBit PCRepairK...
- [Size: 14.99 MB]


Torrent Details For "Signature.Move.2017.1080p.WEB-DL.DD5.1.H264-FGT"

Signature.Move.2017.1080p.WEB-DL.DD5.1.H264-FGT

Download this torrent | Magnet Download
Health:
Seeds: 0
Leechers: 0
Completed:
Last Checked: 12-02-2018 13:56:44
External Torrent
Update Stats


Watch-Free-HD     Download

Poster
No poster


iMDB
Imdb Picture Title: Signature Move
Year: 2017
Runtime: 80 minutes
Votes: 138
Rating: 6.1/10
Language: English, Urdu, Spanish
Country: USA
All Genres: Comedy, Drama, Romance
Plot Outline: Zaynab, a thirty-something Pakistani, Muslim, lesbian in Chicago takes care of her sweet and TV-obsessed mother. As Zaynab falls for Alma, a bold and very bright Mexican woman, she searches for her identity in life, love and wrestling.
Tagline: Life, Love, and Lady Wrestling
Director: Jennifer Reeder
Writing By: Lisa Donato,Fawzia Mirza,
Produced By: Andy Derrow,Jason Fura,Angie Gaffney,Brian Hieggelke,Jan Hieggelke,Joe Klest,Fawzia Mirza,Pranav Pandit,Eugene Park,Nabeela Rasheed,Hugh Schulze,Michael Shannon,
Music: Carlos Villalobos
Cast:
Fawzia Mirza as Zaynab
Shabana Azmi as Parveen
Sari Sanchez as Alma
Audrey Francis as Jayde
Charin Alvarez as Rosa
Molly Brennan as Killian
Mark Hood as Milo
Ox Baker Jr. as Himself - wrestling show
Molly Callinan as Ragina Cruz
Jacob Clapham as Himself - wrestling show


Watch-Free-HD     Download

Details
Name:Signature.Move.2017.1080p.WEB-DL.DD5.1.H264-FGT
Description:
MediaInfo

Video
ID                                       : 1
Format                                   : AVC
Format/Info                              : Advanced Video Codec
Format profile                           : [email protected]
Format settings                          : CABAC / 4 Ref Frames
Format settings, CABAC                   : Yes
Format settings, ReFrames                : 4 frames
Format settings, GOP                     : N=1
Codec ID                                 : V_MPEG4/ISO/AVC
Duration                                 : 1 h 19 min
Bit rate                                 : 5 236 kb/s
Width                                    : 1 916 pixels
Height                                   : 1 032 pixels
Display aspect ratio                     : 1.85:1
Frame rate mode                          : Constant
Frame rate                               : 23.976 (23976/1000) FPS
Color space                              : YUV
Chroma subsampling                       : 4:2:0
Bit depth                                : 8 bits
Scan type                                : Progressive
Bits/(Pixel*Frame)                       : 0.110
Stream size                              : 2.92 GiB (93%)
Title                                    : Signature.Move.2017.1080p.WEB-DL.DD5.1.H.264-FGT
Language                                 : English
Default                                  : Yes
Forced                                   : No
Color range                              : Limited
Color primaries                          : BT.709
Transfer characteristics                 : BT.709
Matrix coefficients                      : BT.709

Audio
ID                                       : 2
Format                                   : AC-3
Format/Info                              : Audio Coding 3
Codec ID                                 : A_AC3
Duration                                 : 1 h 19 min
Bit rate mode                            : Constant
Bit rate                                 : 384 kb/s
Channel(s)                               : 6 channels
Channel positions                        : Front: L C R, Side: L R, LFE
Sampling rate                            : 48.0 kHz
Frame rate                               : 31.250 FPS (1536 SPF)
Bit depth                                : 16 bits
Compression mode                         : Lossy
Stream size                              : 219 MiB (7%)
Title                                    : Signature.Move.2017.1080p.WEB-DL.DD5.1.H.264-FGT
Language                                 : English
Service kind                             : Complete Main
Default                                  : Yes
Forced                                   : No

Text
ID                                       : 3
Format                                   : UTF-8
Codec ID                                 : S_TEXT/UTF8
Codec ID/Info                            : UTF-8 Plain Text
Duration                                 : 1 h 15 min
Bit rate                                 : 32 b/s
Count of elements                        : 735
Stream size                              : 18.1 KiB (0%)
Language                                 : English
Default                                  : Yes
Forced                                   : No

Menu
00:00:00.000                             : en:1
00:07:15.000                             : en:2
00:12:52.000                             : en:3
00:19:43.000                             : en:4
00:26:54.000                             : en:5
00:34:46.000                             : en:6
00:41:53.000                             : en:7
00:48:59.000                             : en:8
00:54:24.000                             : en:9
01:01:22.000                             : en:10
01:09:29.000                             : en:11
01:16:30.000                             : en:12




 http://imagecurl.com/viewer.ph...7565563882779656.png
Category:Movies > WEB-HD
Lang:English  English
Total Size:3.14 GB
Info Hash:815b6bdf3027e801ade90597d278df6837fb7680
Added By:Agent47
Date Added:12-02-2018 13:56:39
Downloads:27

Download Torrent

Ratings:Not Yet Rated (Log in to rate it)


Tracker:
http://tracker.trackerfix.com:80/announce


File List: 


Comments

No comments still posted

Powered by 10 Hamsters v2-svn -|- Page Generated In 0.041340 secs.
-|- RSS Feed -|- Feed Info
Theme By: Nikkbu