Login
Username:
Password:
[Signup]
[Recover Account]


Browse Torrents

Poll


You must be logged in to view polls



Latest Torrents
The Gambler (2014)...
- [Size: 1.09 GB]

Duck Duck Goose 20...
- [Size: 1.31 GB]

Mamma Mia! Here We...
- [Size: 1.37 GB]

Duck.Duck.Goose.20...
- [Size: 1.20 GB]

Mass V s Class (Ab...
- [Size: 982.55 MB]


Torrent Details For "Paanch Ka Punch (Ainthu Ainthu Ainthu) 2013 Hindi Dubbed 720p WEB-DL x264 AAC { TaRa }.mkv"

Paanch Ka Punch (Ainthu Ainthu Ainthu) 2013 Hindi Dubbed 720p WEB-DL x264 AAC { TaRa }.mkv

Download this torrent | Magnet Download
Health:
Seeds: 0
Leechers: 2
Completed: 831 
Last Checked: 21-07-2018 17:33:10
External Torrent
Update Stats


Watch-Free-HD     Download

Poster


Watch-Free-HD     Download

Details
Name:Paanch Ka Punch (Ainthu Ainthu Ainthu) 2013 Hindi Dubbed 720p WEB-DL x264 AAC { TaRa }.mkv
Description:

Paanch Ka Punch (Ainthu Ainthu Ainthu) 2013 Hindi Dubbed 720p WEB-DL x264 AAC { TaRa } .mkv
 

===================================================================
General
Complete name               : Paanch Ka Punch (Ainthu Ainthu Ainthu) 2013 Hindi Dubbed 720p WEB-DL x264 AAC { TaRa } .mkv
Format                      : Matroska
Format version              : Version 4 / Version 2
File size                   : 919 MiB
Duration                    : 1 h 53 min
Overall bit rate            : 1 128 kb/s
===================================================================
Video
ID                          : 1
Format                      : AVC
Format/Info                 : Advanced Video Codec
Format profile              : [email protected]
Format settings, CABAC      : Yes
Format settings, ReFrames   : 4 frames
Codec ID                    : V_MPEG4/ISO/AVC
Duration                    : 1 h 53 min
Bit rate                    : 1 000 kb/s
Width                       : 1 280 pixels
Height                      : 544 pixels
Display aspect ratio        : 2.35:1
Frame rate mode             : Constant
Frame rate                  : 25.000 FPS
Color space                 : YUV
Chroma subsampling          : 4:2:0
Bit depth                   : 8 bits
Scan type                   : Progressive
Bits/(Pixel*Frame)          : 0.057
Stream size                 : 815 MiB (89%)
Title                       : .....::::: TaRa :::::.....
Language                    : Hindi
Default                     : Yes
Forced                      : Yes
===================================================================
Audio
ID                          : 2
Format                      : AAC
Format/Info                 : Advanced Audio Codec
Format profile              : LC
Codec ID                    : A_AAC
Duration                    : 1 h 53 min
Bit rate                    : 126 kb/s
Channel(s)                  : 2 channels
Channel positions           : Front: L R
Sampling rate               : 44.1 kHz
Frame rate                  : 43.066 FPS (1024 spf)
Compression mode            : Lossy
Stream size                 : 102 MiB (11%)
Default                     : Yes
Forced                      : No
===================================================================


 
 
 
 
 
 
 
 
 
 
 
 
 
 
 
 
 
 
 










 


Category:Movies > South Dub
Lang:Hindi
Total Size:919.62 MB
Info Hash:79ece347357ae4c61bf194ce3998302c3ce1ce2d
Added By:SkTaRa
Date Added:11-02-2018 15:31:31
Downloads:437

Download Torrent

Ratings:Not Yet Rated (Log in to rate it)


Tracker:
udp://tracker.coppersurfer.tk:6969/announce


File List: 


Comments

No comments still posted

Powered by 10 Hamsters v2-svn -|- Page Generated In 4.914241 secs.
-|- RSS Feed -|- Feed Info
Theme By: Nikkbu