Login
Username:
Password:
[Signup]
[Recover Account]


Browse Torrents

Poll


You must be logged in to view polls



Latest Torrents
Andover (2018) 720...
- [Size: 731.97 MB]

Just.for.Laughs.Al...
- [Size: 421.89 MB]

The First Purge 20...
- [Size: 985.32 MB]

Unforgotten.S03E02...
- [Size: 230.99 MB]

Just.for.Laughs.Al...
- [Size: 393.00 MB]


Torrent Details For "Sholay (1975) Hindi 3D SBS 1080p BluRay x264 AAC.-.Link2download"

Sholay (1975) Hindi 3D SBS 1080p BluRay x264 AAC.-.Link2download

Download this torrent | Magnet Download
Health:
Seeds: 41
Leechers: 1
Completed: 3,257 
Last Checked: 12-05-2018 06:01:30
External Torrent
Update Stats


Watch-Free-HD     Download

Poster


iMDB
Imdb Picture Title: Sholay 3D
Year: 2014
Votes: 26
Rating: 8.6/10
Language: Hindi
Country: India
All Genres: Action, Western
Plot Outline: Jai and Veeru help a man in taking his revenge from a deceit. This is the re-release of the classic Sholay which was released in 1975.
Director: Ramesh Sippy

Produced By: Sascha Sippy,Shehzad Sippy,Shaan Uttamsingh,
Cast:


Watch-Free-HD     Download

Details
Name:Sholay (1975) Hindi 3D SBS 1080p BluRay x264 AAC.-.Link2download
Description:





Format                      : Matroska
Format version              : Version 4 / Version 2
File size                   : 3.78 GiB
Duration                    : 3 h 14 min
Overall bit rate            : 2 789 kb/s
Movie name                  : link2download.website.-.Sholay (1975) Hindi 3D SBS 1080p BluRay x264 AAC
Encoded date                : UTC 2018-02-07 08:55:42
Writing application         : mkvmerge v7.0.0 ('Where We Going') 64bit built on Jun  9 2014 15:16:27
Writing library             : libebml v1.3.0 + libmatroska v1.4.1

Video
ID                          : 1
Format                      : AVC
Format/Info                 : Advanced Video Codec
Format profile              : [email protected]
Format settings             : CABAC / 3 Ref Frames
Format settings, CABAC      : Yes
Format settings, ReFrames   : 3 frames
Codec ID                    : V_MPEG4/ISO/AVC
Duration                    : 3 h 14 min
Bit rate                    : 2 662 kb/s
Width                       : 1 920 pixels
Height                      : 1 080 pixels
Display aspect ratio        : 16:9
Frame rate mode             : Constant
Frame rate                  : 25.000 FPS
Color space                 : YUV
Chroma subsampling          : 4:2:0
Bit depth                   : 8 bits
Scan type                   : Progressive
Bits/(Pixel*Frame)          : 0.051
Stream size                 : 3.61 GiB (95%)
Default                     : Yes
Forced                      : No
Color range                 : Limited
Color primaries             : BT.709
Transfer characteristics    : BT.709
Matrix coefficients         : BT.709

Audio
ID                          : 2
Format                      : AAC
Format/Info                 : Advanced Audio Codec
Format profile              : LC
Codec ID                    : A_AAC-2
Duration                    : 3 h 14 min
Bit rate                    : 126 kb/s
Channel(s)                  : 2 channels
Channel positions           : Front: L R
Sampling rate               : 44.1 kHz
Frame rate                  : 43.066 FPS (1024 SPF)
Compression mode            : Lossy
Stream size                 : 174 MiB (5%)
Default                     : Yes
Forced                      : No







                                               





Category:Movies > 3D
Lang:Hindi
Total Size:3.79 GB
Info Hash:357b0aae2afb13f87de3e97cab4d93b066c4fd68
Added By:link2download
Date Added:08-02-2018 07:03:40
Downloads:768

Download Torrent

Ratings:Not Yet Rated (Log in to rate it)


Tracker:
udp://tracker.coppersurfer.tk:6969/announce


File List: 


Comments

<< Previous      Next >>
1 - 1

[Report] Posted: 15-03-2018 at 15:43:19
DuN



Uploaded: 0.00 B
Downloaded: 0.00 B
Ratio: ---

Are chutiye Sholay ka BluRay abhi tak release nai huwa hai re

1 - 1
<< Previous      Next >>


Powered by 10 Hamsters v2-svn -|- Page Generated In 3.964358 secs.
-|- RSS Feed -|- Feed Info
Theme By: Nikkbu