Login
Username:
Password:
[Signup]
[Recover Account]


Browse Torrents

Poll


You must be logged in to view polls



Latest Torrents
Beirut.2018.720p.W...
- [Size: 771.53 MB]

Ransom.S02E11.HDTV...
- [Size: 267.24 MB]

Ransom.S02E11.720p...
- [Size: 933.77 MB]

Taken.2017.S02E15....
- [Size: 212.09 MB]

Taken.2017.S02E15....
- [Size: 712.78 MB]


Torrent Details For "Jora 10 Numbaria 2017 720p HD Punjabi GOPISAHI"

Jora 10 Numbaria 2017 720p HD Punjabi GOPISAHI

Download this torrent | Magnet Download
Health:
Seeds: 36
Leechers: 4
Completed: 3,841 
Last Checked: 03-05-2018 08:48:20
External Torrent
Update Stats


Watch-Free-HD     Download

Poster


iMDB
Imdb Picture Title: Jora 10 Numbaria
Year: 2017
Runtime: 135 minutes
Votes: 32
Rating: 8.6/10
Language: Panjabi
Country: India
All Genres: Action
Plot Outline: A traumatized young man seeks revenge on the corrupt officials that have wronged him and his family.
Director: Amardeep Singh Gill

Music: Inder Bawra
Cast:
Dharmendra as Jugga
Yaad Grewal as Deepa
Aman Hundal as
Deep Sidhu as Jora
Pali Sidhu as
Mukesh Tiwari as


Watch-Free-HD     Download

Details
Name:Jora 10 Numbaria 2017 720p HD Punjabi GOPISAHI
Description:

Format                         : Matroska
Format version                 : Version 4 / Version 2
File size                      : 568 MiB
Duration                       : 2 h 14 min
Overall bit rate               : 589 kb/s
Movie name                     : Jora 10 Numbaria 2017

Video
Format                         : AVC
Codec ID                       : V_MPEG4/ISO/AVC
Duration                       : 2 h 14 min
Bit rate                       : 500 kb/s
Width                          : 1 280 pixels
Height                         : 536 pixels
Display aspect ratio           : 2.40:1
Frame rate mode                : Constant
Frame rate                     : 24.000 FPS
Stream size                    : 482 MiB (85%)
Writing library                : x264

Audio: 2
Format                         : AAC
Duration                       : 2 h 14 min
Bit rate                       : 87.4 kb/s
Channel(s)                     : 6 channels
Channel positions              : Front: L C R, Side: L R, LFE
Sampling rate                  : 44.1 kHz
Frame rate                     : 43.066 FPS (1024 SPF)
Compression mode               : Lossy
Stream size                    : 84.3 MiB (15%)
Language                       : Panjabi


Category:Movies > Punjabi
Lang:Punjabi
Total Size:568.29 MB
Info Hash:29309b8d06f555663b85e75662e46d6a07e2f782
Added By:gopisahi
Date Added:14-01-2018 02:33:12
Downloads:450

Download Torrent

Ratings:Not Yet Rated (Log in to rate it)


Tracker:
http://ipv4.tracker.harry.lu/announce

This Torrent also has backup trackers
URLSeedersLeechersCompleted
http://ipv4.tracker.harry.lu/announce000
http://ipv4.tracker.harry.lu:80/announce000
http://163.172.180.68:80/announce000
http://t.nyaatracker.com/announce6019
http://tracker.devil-torrents.pl:80/announce000
http://tracker.devil-torrents.pl/announce000
http://open.kickasstracker.com/announce11116
http://163.172.180.68/announce000
http://t.nyaatracker.com:80/announce3012
http://retracker.mgts.by:80/announce811,237
http://45.33.11.224/announce000
http://tracker.torrentyorg.pl:80/announce20103
http://pt.lax.mx:80/announce000


File List: 


Comments

No comments still posted

Powered by 10 Hamsters v2-svn -|- Page Generated In 0.312888 secs.
-|- RSS Feed -|- Feed Info
Theme By: Nikkbu