Login
Username:
Password:
[Signup]
[Recover Account]


Browse Torrents

Poll


You must be logged in to view polls



Latest Torrents
Beirut.2018.720p.W...
- [Size: 771.53 MB]

Ransom.S02E11.HDTV...
- [Size: 267.24 MB]

Ransom.S02E11.720p...
- [Size: 933.77 MB]

Taken.2017.S02E15....
- [Size: 212.09 MB]

Taken.2017.S02E15....
- [Size: 712.78 MB]


Torrent Details For "Amazon Obhijaan (2018) 720p HQ CamRip - x264 -Line Auds-[Hindi+Telugu+Tamil] - 1.6GB - MovCr Ex..."

Amazon Obhijaan (2018) 720p HQ CamRip - x264 -Line Auds-[Hindi+Telugu+Tamil] - 1.6GB - MovCr Ex...

Download this torrent | Magnet Download
Health:
Seeds: 166
Leechers: 36
Completed: 4,916 
Last Checked: 14-02-2018 16:52:24
External Torrent
Update Stats


Watch-Free-HD     Download

Poster


iMDB
Imdb Picture Title: Amazon Obhijaan
Year: 2017
Runtime: 140 minutes
Votes: 499
Rating: 6.4/10
Language: Bengali, Assamese, Hindi, Tamil, Telugu, Oriya
Country: India
All Genres: Action, Adventure, Thriller
Plot Outline: Amazon Obhijaan will see daredevil adventurer Shankar Choudhury traverse the length and breadth of South America, including the legendary Amazon in search of the mythical city of gold.
Tagline: Biggest Bengali Film
Director: Kamaleswar Mukherjee
Writing By: Kamaleswar Mukherjee,
Produced By: Andrez Castilho,Chic√£o Fill,Shrikant Mohta,Francisco Ramalho Jr.,Mahendra Soni,
Music: Debajyoti Mishra
Cast:
Dev as Shankar
David James as Marco Florian
Svetlana Gulakova as Anna Florian
Laboni Sarkar as Shankar's Mother
Tamal Ray Chowdhury as Shankar's Father
Eduardo Munniz as Ankoma
Roney Facchini as Dr. Ditmer
Marjorie Gerardi as Isabela
Felipe Montanari as Algusto Delgado
Eduardo Semerjian as Edgar Barret


Watch-Free-HD     Download

Details
Name:Amazon Obhijaan (2018) 720p HQ CamRip - x264 -Line Auds-[Hindi+Telugu+Tamil] - 1.6GB - MovCr Ex...
Description:
Amazon Adventure (2018) 720p HQ DVDScr - x264 -Line Auds-[Hindi+Telugu+Tamil] - 1.6GB - MovCr Exclusive

 http://www.imdb.com/title/tt5125414/

 

General
Complete name                            : www.movcr.com - Amazon Adventure (2018) 720p HQ DVDScr - x264 -Line Auds-[Hindi+Telugu+Tamil] - 1.5GB - MovCr Exclusive.mkv
Format                                   : Matroska
Format version                           : Version 4 / Version 2
File size                                : 1.63 GiB
Duration                                 : 2 h 8 min
Overall bit rate mode                    : Variable
Overall bit rate                         : 1 810 kb/s
Movie name                               : www.movcr.com Exclusive
Encoded date                             : UTC 2018-01-14 03:42:28
Writing application                      : mkvmerge v17.0.0 ('Be Ur Friend') 64-bit
Writing library                          : libebml v1.3.5 + libmatroska v1.4.8

Video
ID                                       : 2
Format                                   : AVC
Format/Info                              : Advanced Video Codec
Format profile                           : [email protected]
Format settings                          : CABAC / 4 Ref Frames
Format settings, CABAC                   : Yes
Format settings, RefFrames               : 4 frames
Codec ID                                 : V_MPEG4/ISO/AVC
Duration                                 : 2 h 8 min
Bit rate                                 : 1 416 kb/s
Width                                    : 1 280 pixels
Height                                   : 544 pixels
Display aspect ratio                     : 2.35:1
Frame rate mode                          : Constant
Frame rate                               : 25.000 FPS
Color space                              : YUV
Chroma subsampling                       : 4:2:0
Bit depth                                : 8 bits
Scan type                                : Progressive
Bits/(Pixel*Frame)                       : 0.081
Stream size                              : 1.28 GiB (78%)
Title                                    : www.movcr.com
Writing library                          : x264 core 148 r2744 b97ae06
Encoding settings                        : cabac=1 / ref=3 / deblock=1:0:0 / analyse=0x3:0x113 / me=hex / subme=7 / psy=1 / psy_rd=1.00:0.00 / mixed_ref=1 / me_range=16 / chroma_me=1 / trellis=1 / 8x8dct=1 / cqm=0 / deadzone=21,11 / fast_pskip=1 / chroma_qp_offset=-2 / threads=17 / lookahead_threads=2 / sliced_threads=0 / nr=0 / decimate=1 / interlaced=0 / bluray_compat=0 / constrained_intra=0 / bframes=3 / b_pyramid=2 / b_adapt=1 / b_bias=0 / direct=1 / weightb=1 / open_gop=0 / weightp=2 / keyint=250 / keyint_min=25 / scenecut=40 / intra_refresh=0 / rc_lookahead=40 / rc=2pass / mbtree=1 / bitrate=1416 / ratetol=1.0 / qcomp=0.60 / qpmin=0 / qpmax=69 / qpstep=4 / cplxblur=20.0 / qblur=0.5 / ip_ratio=1.40 / aq=1:1.00
Language                                 : Telugu
Default                                  : Yes
Forced                                   : No

Audio #1
ID                                       : 1
Format                                   : AC-3
Format/Info                              : Audio Coding 3
Codec ID                                 : A_AC3
Duration                                 : 2 h 8 min
Bit rate mode                            : Constant
Bit rate                                 : 224 kb/s
Channel(s)                               : 2 channels
Channel positions                        : Front: L R
Sampling rate                            : 48.0 kHz
Frame rate                               : 31.250 FPS (1536 SPF)
Bit depth                                : 16 bits
Compression mode                         : Lossy
Stream size                              : 207 MiB (12%)
Title                                    : www.movcr.com
Language                                 : Hindi
Service kind                             : Complete Main
Default                                  : No
Forced                                   : No

Audio #2
ID                                       : 3
Format                                   : MPEG Audio
Format version                           : Version 1
Format profile                           : Layer 3
Format settings                          : Joint stereo / MS Stereo
Codec ID                                 : A_MPEG/L3
Codec ID/Hint                            : MP3
Duration                                 : 2 h 8 min
Bit rate mode                            : Variable
Bit rate                                 : 106 kb/s
Nominal bit rate                         : 96.0 kb/s
Channel(s)                               : 2 channels
Sampling rate                            : 48.0 kHz
Frame rate                               : 41.667 FPS (1152 SPF)
Compression mode                         : Lossy
Stream size                              : 97.5 MiB (6%)
Title                                    : www.movcr.com
Writing library                          : LAME3.99r
Encoding settings                        : -m j -V 4 -q 3 -lowpass 15.1 --abr 96
Language                                 : Telugu
Default                                  : Yes
Forced                                   : No

Audio #3
ID                                       : 4
Format                                   : MPEG Audio
Format version                           : Version 2.5
Format profile                           : Layer 3
Format settings                          : Joint stereo / MS Stereo
Codec ID                                 : A_MPEG/L3
Codec ID/Hint                            : MP3
Duration                                 : 2 h 8 min
Bit rate mode                            : Variable
Bit rate                                 : 64.0 kb/s
Channel(s)                               : 2 channels
Sampling rate                            : 8 000 Hz
Frame rate                               : 13.889 FPS (576 SPF)
Compression mode                         : Lossy
Stream size                              : 56.8 MiB (3%)
Title                                    : www.movcr.com
Writing library                          : LAME3.99r
Encoding settings                        : -m j -V 4 -q 3 -lowpass 4 --abr 64
Language                                 : Tamil
Default                                  : No
Forced                                   : No


                             
Category:Movies > Pre-Releases
Lang:Hindi
Total Size:1.63 GB
Info Hash:9440ad2a79dbbf2907fd2fb60212e0190697deba
Added By:Kingmaker
Date Added:13-01-2018 14:23:24
Downloads:505

Download Torrent

Ratings:Not Yet Rated (Log in to rate it)


Tracker:
udp://tracker.openbittorrent.com:80/announce


File List: 


Comments

No comments still posted

Powered by 10 Hamsters v2-svn -|- Page Generated In 2.616781 secs.
-|- RSS Feed -|- Feed Info
Theme By: Nikkbu