Login
Username:
Password:
[Signup]
[Recover Account]


Browse Torrents

Poll


You must be logged in to view polls



Latest Torrents
Life of the Party ...
- [Size: 822.07 MB]

Life.of.the.Party....
- [Size: 1.59 GB]

LEGO.DC.Comics.Sup...
- [Size: 2.36 GB]

LEGO.DC.Comics.Sup...
- [Size: 1.21 GB]

Rampage 2018 1080p...
- [Size: 1.76 GB]


Torrent Details For "Gangster Land 2017 1080p BluRay AC3 5.1 x264 ESub"

Gangster Land 2017 1080p BluRay AC3 5.1 x264 ESub

Download this torrent | Magnet Download
Health:
Seeds: 28
Leechers: 141
Completed: 57 
Last Checked: 11-01-2018 11:02:33
External Torrent
Update Stats


Watch-Free-HD     Download

Poster
No poster


Watch-Free-HD     Download

Details
Name:Gangster Land 2017 1080p BluRay AC3 5.1 x264 ESub
Description:

 

General
Format                      : Matroska
Format version              : Version 4 / Version 2
File size                   : 1.67 GiB
Duration                    : 1 h 28 min
Overall bit rate            : 2 710 kb/s

Video
ID                          : 1
Format                      : AVC
Format/Info                 : Advanced Video Codec
Format profile              : [email protected]
Format settings             : CABAC / 4 Ref Frames
Format settings, CABAC      : Yes
Format settings, ReFrames   : 4 frames
Codec ID                    : V_MPEG4/ISO/AVC
Duration                    : 1 h 28 min
Bit rate                    : 2 500 kb/s
Width                       : 1 920 pixels
Height                      : 804 pixels
Display aspect ratio        : 2.40:1
Frame rate mode             : Constant
Frame rate                  : 23.976 (24000/1001) FPS
Color space                 : YUV
Chroma subsampling          : 4:2:0
Bit depth                   : 8 bits
Scan type                   : Progressive
Bits/(Pixel*Frame)          : 0.068
Stream size                 : 1.51 GiB (90%)
Writing library             : x264 core 148 r2708 86b7198
Default                     : Yes
Forced                      : No

Audio
ID                          : 2
Format                      : AC-3
Format/Info                 : Audio Coding 3
Codec ID                    : A_AC3
Duration                    : 1 h 28 min
Bit rate mode               : Constant
Bit rate                    : 256 kb/s
Channel(s)                  : 6 channels
Channel positions           : Front: L C R, Side: L R, LFE
Sampling rate               : 48.0 kHz
Frame rate                  : 31.250 FPS (1536 SPF)
Bit depth                   : 16 bits
Compression mode            : Lossy
Stream size                 : 161 MiB (9%)
Language                    : English
Service kind                : Complete Main
Default                     : Yes
Forced                      : No

Text
ID                          : 3
Format                      : UTF-8
Codec ID                    : S_TEXT/UTF8
Codec ID/Info               : UTF-8 Plain Text
Duration                    : 1 h 18 min
Bit rate                    : 54 b/s
Count of elements           : 1066
Stream size                 : 31.4 KiB (0%)
Language                    : English
Default                     : Yes
Forced                      : No




 http://pichub.site/image/VYsQ
 http://pichub.site/image/VIav
 http://pichub.site/image/VO8d
 http://pichub.site/image/VR59
 http://pichub.site/image/VSqu
 http://pichub.site/image/VEyR

Category:Movies > 1080P Bluray
Lang:English  English
Total Size:1.67 GB
Info Hash:298dbfdffc24dec8e02ee68449f326749abe12e9
Added By:Freaky
Date Added:11-01-2018 11:01:43
Downloads:151

Download Torrent

Ratings:Not Yet Rated (Log in to rate it)


Tracker:
udp://tracker.ilibr.org:6969/announce


File List: 


Comments

No comments still posted

Powered by 10 Hamsters v2-svn -|- Page Generated In 0.015190 secs.
-|- RSS Feed -|- Feed Info
Theme By: Nikkbu