Staffel 5 | nike air jordan retro 9 shoes | Ћаскање


Login
Username:
Password:
[Signup]
[Recover Account]


Browse Torrents

Poll


You must be logged in to view polls



Torrent Details For "Sipaayi (2016) Hindi Dubbed 720p HDRip x264 AAC - 1.3GB - Movcr Exclusive"

Sipaayi (2016) Hindi Dubbed 720p HDRip x264 AAC - 1.3GB - Movcr Exclusive

Download this torrent | Magnet Download
Health:
Seeds: 10
Leechers: 2,260
Completed:
Last Checked: 06-01-2018 14:49:22
External Torrent
Update Stats


Watch-Free-HD     Download

Poster


iMDB
Imdb Picture Title: Sipaayi
Year: 2016
Runtime: 125 minutes
Votes: 5
Rating: 8.2/10
Language: Kannada
Country: India
All Genres: Action
Plot Outline: The protagonist, a TV reporter fights to stop illegal activities around the city.
Director: Rajath Mayee
Writing By: Rajath Mayee,
Produced By: Maheshr,
Music: B. Ajaneesh Loknath
Cast:
Gaurish Akki as Vishwanath
Sruthi Hariharan as Divya
Krishna Hebbale as Virat
Achyuth Kumar as Narasimharaju
Siddharth Mahesh as Siddharth
Bharath Singh as Abhay
Sanchari Vijay as Manju


Watch-Free-HD     Download

Details
Name:Sipaayi (2016) Hindi Dubbed 720p HDRip x264 AAC - 1.3GB - Movcr Exclusive
Description:
Sipaayi (2016) Hindi Dubbed 720p HDRip x264 AAC - 1.3GB - Movcr Exclusive

 

 http://www.imdb.com/title/tt6034076/
General
Complete name                            : www.movcr.com - Sipaayi (2016) Hindi Dubbed 720p HDRip x264 AAC - 1.3GB - Movcr Exclusive.mkv
Format                                   : Matroska
Format version                           : Version 4 / Version 2
File size                                : 1.34 GiB
Duration                                 : 1 h 40 min
Overall bit rate                         : 1 901 kb/s
Movie name                               : www.movcr.com - Exclusive
Encoded date                             : UTC 2018-01-06 19:28:53
Writing application                      : mkvmerge v17.0.0 ('Be Ur Friend') 64-bit
Writing library                          : libebml v1.3.5 + libmatroska v1.4.8

Video
ID                                       : 1
Format                                   : AVC
Format/Info                              : Advanced Video Codec
Format profile                           : [email protected]
Format settings                          : CABAC / 4 Ref Frames
Format settings, CABAC                   : Yes
Format settings, RefFrames               : 4 frames
Codec ID                                 : V_MPEG4/ISO/AVC
Duration                                 : 1 h 40 min
Bit rate                                 : 1 739 kb/s
Width                                    : 1 280 pixels
Height                                   : 576 pixels
Display aspect ratio                     : 2.35:1
Original display aspect ratio            : 2.35:1
Frame rate mode                          : Constant
Frame rate                               : 24.000 FPS
Color space                              : YUV
Chroma subsampling                       : 4:2:0
Bit depth                                : 8 bits
Scan type                                : Progressive
Bits/(Pixel*Frame)                       : 0.098
Stream size                              : 1.22 GiB (91%)
Title                                    : www.movcr.com - Exclusive
Writing library                          : x264 core 148 r2708 86b7198
Encoding settings                        : cabac=1 / ref=2 / deblock=1:0:0 / analyse=0x1:0x111 / me=hex / subme=6 / psy=1 / psy_rd=1.00:0.00 / mixed_ref=1 / me_range=16 / chroma_me=1 / trellis=1 / 8x8dct=0 / cqm=0 / deadzone=21,11 / fast_pskip=1 / chroma_qp_offset=-2 / threads=12 / lookahead_threads=2 / sliced_threads=0 / nr=0 / decimate=1 / interlaced=0 / bluray_compat=0 / constrained_intra=0 / bframes=3 / b_pyramid=2 / b_adapt=1 / b_bias=0 / direct=1 / weightb=1 / open_gop=0 / weightp=1 / keyint=240 / keyint_min=24 / scenecut=40 / intra_refresh=0 / rc_lookahead=30 / rc=crf / mbtree=1 / crf=21.0 / qcomp=0.60 / qpmin=0 / qpmax=69 / qpstep=4 / vbv_maxrate=14000 / vbv_bufsize=14000 / crf_max=0.0 / nal_hrd=none / filler=0 / ip_ratio=1.40 / aq=1:1.00
Default                                  : Yes
Forced                                   : No
Color range                              : Limited
Color primaries                          : BT.601 NTSC
Transfer characteristics                 : BT.709
Matrix coefficients                      : BT.601

Audio
ID                                       : 2
Format                                   : AAC
Format/Info                              : Advanced Audio Codec
Format profile                           : LC
Codec ID                                 : A_AAC-2
Duration                                 : 1 h 40 min
Bit rate                                 : 160 kb/s
Channel(s)                               : 2 channels
Channel positions                        : Front: L R
Sampling rate                            : 44.1 kHz
Frame rate                               : 43.066 FPS (1024 SPF)
Compression mode                         : Lossy
Delay relative to video                  : -20 ms
Stream size                              : 115 MiB (8%)
Title                                    : www.movcr.com - Exclusive
Language                                 : Hindi
Default                                  : Yes
Forced                                   : No

                           
Category:Movies > South Dub
Lang:Hindi
Total Size:1.34 GB
Info Hash:0d39b02fea1c51529c7dd5e6e2c99e1a03eb2f75
Added By:Kingmaker
Date Added:06-01-2018 05:40:31
Downloads:466

Download Torrent

Ratings:Not Yet Rated (Log in to rate it)


Tracker:
udp://tracker.openbittorrent.com:80/announce


File List: 


Comments

No comments still posted

Powered by 10 Hamsters v2-svn -|- Page Generated In 2.161085 secs.
-|- RSS Feed -|- Feed Info
Theme By: Nikkbu