Login
Username:
Password:
[Signup]
[Recover Account]


Browse Torrents

Poll


You must be logged in to view polls



Latest Torrents
The Gambler (2014)...
- [Size: 1.09 GB]

Duck Duck Goose 20...
- [Size: 1.31 GB]

Mamma Mia! Here We...
- [Size: 1.37 GB]

Duck.Duck.Goose.20...
- [Size: 1.20 GB]

Mass V s Class (Ab...
- [Size: 982.55 MB]


Torrent Details For "Sangram (1993) Ajay Devgan, Ayesha Jhulka, Karishma Kapoor, Amrish Puri"

Sangram (1993) Ajay Devgan, Ayesha Jhulka, Karishma Kapoor, Amrish Puri

Download this torrent | Magnet Download
Health:
Seeds: 0
Leechers: 115
Completed:
Last Checked: 12-01-2018 12:10:02
External Torrent
Update Stats


Watch-Free-HD     Download

Poster


iMDB
Imdb Picture Title: Sangram
Year: 1993
Runtime: 156 minutes
Votes: 152
Rating: 3.1/10
Language: Hindi
Country: India
All Genres: Drama, Romance
Plot Outline: Thakur Surajbhan Singh Kanwar forces Thakur Shamsher Singh Rana sister to commit suicide thus the two business-men became enemies. Years later Surajbhan's son, Raja and Rana's daughter, ...
Director: Lawrence D'Souza
Writing By: Rajeev Kaul,Jalees Sherwani,
Produced By: Lawrence D'Souza,
Music: Shravan Rathod Nadeem Saifi
Cast:
Ajay Devgn as Raja S. Singh Kanwar
Ayesha Jhulka as Palavi K. Singh
Karisma Kapoor as Madhu S. Singh
Amrish Puri as Thakur Surajbhan Singh Kanwar
Danny Denzongpa as Thakur Shamsher Singh Rana
Reema Lagoo as Mrs. Shamsher Rana
Laxmikant Berde as Teji
Vikas Anand as Police Commissioner
Asrani as Hindi Professor Bishveshwar Trivedi
Brahmachari as Bansi


Watch-Free-HD     Download

Details
Name:Sangram (1993) Ajay Devgan, Ayesha Jhulka, Karishma Kapoor, Amrish Puri
Description:



-:General

Format                                   : WebM
Format version                           : Version 2
File size                                : 775 MiB
Duration                                 : 2h 36mn
Overall bit rate mode                    : Variable
Overall bit rate                         : 693 Kbps
Writing application                      : Google
Writing library                          : Google

-:Video:-

ID                                       : 1
Format                                   : VP8
Codec ID                                 : V_VP8
Duration                                 : 2h 36mn
Bit rate                                 : 529 Kbps
Width                                    : 640 pixels
Height                                   : 360 pixels
Display aspect ratio                     : 16:9
Frame rate mode                          : Constant
Frame rate                               : 25.000 fps
Compression mode                         : Lossy
Bits/(Pixel*Frame)                       : 0.092
Stream size                              : 592 MiB (76%)
Default                                  : Yes
Forced                                   : No

-:Audio:-

ID                                       : 2
Format                                   : Vorbis
Format settings, Floor                   : 1
Codec ID                                 : A_VORBIS
Duration                                 : 2h 36mn
Bit rate mode                            : Variable
Bit rate                                 : 128 Kbps
Channel count                            : 2 channels
Sampling rate                            : 44.1 KHz
Compression mode                         : Lossy
Stream size                              : 143 MiB (18%)
Default                                  : Yes
Forced                                   : No
Writing application                      : Google



-:ScreenShots:-












1CnbmYmViVdxgLnhqJzp2ENzsWxnx4iUyT

-:Visit Us:-

 http://filmiwar.com/


!!!...Plz Keep Seeding After Download...!!!


Category:Movies > Bollywood
Lang:Hindi
Total Size:775.40 MB
Info Hash:710dbd5380d406102d9cd09ae31a0e43d61f0d44
Added By:filmiwar
Date Added:05-01-2018 15:29:13
Downloads:442

Download Torrent

Ratings:Not Yet Rated (Log in to rate it)


Tracker:
udp://ipv4.tracker.harry.lu:80/announce


File List: 


Comments

No comments still posted

Powered by 10 Hamsters v2-svn -|- Page Generated In 1.831067 secs.
-|- RSS Feed -|- Feed Info
Theme By: Nikkbu