Criminal Minds - Sezonul 04 Episodul 06 | Peacock (2010) | WWE Wrestlemania XXX WWENetwork WEB-DL H264-XWT [P2PDL]


Login
Username:
Password:
[Signup]
[Recover Account]


Browse Torrents

Poll


You must be logged in to view polls



Torrent Details For "1921 - Ek Raaz (2017) Full Hindi Dubbed Untouched WEBHD Team Jio Exclusive"

1921 - Ek Raaz (2017) Full Hindi Dubbed Untouched WEBHD Team Jio Exclusive

Download this torrent | Magnet Download
Health:
Seeds: 0
Leechers: 0
Completed:
Last Checked: 02-01-2018 16:18:51
External Torrent
Update Stats


Watch-Free-HD     Download

Poster


Watch-Free-HD     Download

Details
Name:1921 - Ek Raaz (2017) Full Hindi Dubbed Untouched WEBHD Team Jio Exclusive
Description:
[align=center]

Quote:

Format                      : MPEG-4
Format profile              : Base Media / Version 2
Codec ID                    : mp42 (isom/mp42)
File size                   : 818 MiB
Duration                    : 2 h 20 min
Overall bit rate mode       : Variable
Overall bit rate            : 813 kb/s
Encoded date                : UTC 2017-12-19 10:31:52
Tagged date                 : UTC 2017-12-19 10:31:52
gsst                        : 0
gstd                        : 8442589

Video
ID                          : 1
Format                      : AVC
Format/Info                 : Advanced Video Codec
Format profile              : [email protected]
Format settings             : CABAC / 3 Ref Frames
Format settings, CABAC      : Yes
Format settings, ReFrames   : 3 frames
Codec ID                    : avc1
Codec ID/Info               : Advanced Video Coding
Duration                    : 2 h 20 min
Bit rate                    : 683 kb/s
Width                       : 1 280 pixels
Height                      : 720 pixels
Display aspect ratio        : 16:9
Frame rate mode             : Constant
Frame rate                  : 29.970 (30000/1001) FPS
Color space                 : YUV
Chroma subsampling          : 4:2:0
Bit depth                   : 8 bits
Scan type                   : Progressive
Bits/(Pixel*Frame)          : 0.025
Stream size                 : 688 MiB (84%)
Title                       : ISO Media file produced by Google Inc. Created on: 12/19/2017.
Encoded date                : UTC 2017-12-19 10:31:52
Tagged date                 : UTC 2017-12-19 10:31:52
Color range                 : Limited
Color primaries             : BT.709
Transfer characteristics    : BT.709
Matrix coefficients         : BT.709

Audio
ID                          : 2
Format                      : AAC
Format/Info                 : Advanced Audio Codec
Format profile              : LC
Codec ID                    : mp4a-40-2
Duration                    : 2 h 20 min
Bit rate mode               : Variable
Bit rate                    : 126 kb/s
Channel(s)                  : 2 channels
Channel positions           : Front: L R
Sampling rate               : 44.1 kHz
Frame rate                  : 43.066 FPS (1024 SPF)
Compression mode            : Lossy
Stream size                 : 126 MiB (15%)
Title                       : ISO Media file produced by Google Inc. Created on: 12/19/2017.
Encoded date                : UTC 2017-12-19 10:31:52
Tagged date                 : UTC 2017-12-19 10:31:52

 
 
 
 
[/align]
Category:Movies > South Dub
Lang:Hindi
Total Size:817.98 MB
Info Hash:1819075fbb07ff7767b03f6cb42083c45bdd90bb
Added By:TeamJio
Date Added:02-01-2018 16:18:51
Downloads:757

Download Torrent

Ratings:Not Yet Rated (Log in to rate it)


Tracker:
udp://tracker.coppersurfer.tk:6969/announce


File List: 


Comments

<< Previous      Next >>
1 - 1

[Report] Posted: 02-01-2018 at 18:27:54
SNY



Uploaded: 0.00 B
Downloaded: 0.00 B
Ratio: ---

Thanks man nice work.

1 - 1
<< Previous      Next >>


Powered by 10 Hamsters v2-svn -|- Page Generated In 1.014950 secs.
-|- RSS Feed -|- Feed Info
Theme By: Nikkbu