Cutthroat Kitchen 10 | 2cellos celloverse, | Nevertheless, I Love You (Soredemo Boku wa Kimi ga Suki)


Login
Username:
Password:
[Signup]
[Recover Account]


Browse Torrents

Poll


You must be logged in to view polls



Torrent Details For "DJ (2017) Hindi Dubbed Untouched WEBHD Team Jio Exclusive"

DJ (2017) Hindi Dubbed Untouched WEBHD Team Jio Exclusive

Download this torrent | Magnet Download
Health:
Seeds: 0
Leechers: 1
Completed:
Last Checked: 02-01-2018 13:57:14
External Torrent
Update Stats


Watch-Free-HD     Download

Poster


Watch-Free-HD     Download

Details
Name:DJ (2017) Hindi Dubbed Untouched WEBHD Team Jio Exclusive
Description:
[align=center]

Quote:

Format                      : MPEG-4
Format profile              : Base Media
Codec ID                    : isom (isom/avc1/mp42)
File size                   : 1.10 GiB
Duration                    : 2 h 1 min
Overall bit rate mode       : Variable
Overall bit rate            : 1 296 kb/s
Encoded date                : UTC 2017-11-22 09:28:53
Tagged date                 : UTC 2017-11-22 09:28:53

Video
ID                          : 1
Format                      : AVC
Format/Info                 : Advanced Video Codec
Format profile              : [email protected]
Format settings             : CABAC / 4 Ref Frames
Format settings, CABAC      : Yes
Format settings, ReFrames   : 4 frames
Format settings, GOP        : M=3, N=25
Codec ID                    : avc1
Codec ID/Info               : Advanced Video Coding
Duration                    : 2 h 1 min
Bit rate                    : 1 196 kb/s
Maximum bit rate            : 3 490 kb/s
Width                       : 1 280 pixels
Height                      : 720 pixels
Display aspect ratio        : 16:9
Frame rate mode             : Constant
Frame rate                  : 25.000 FPS
Color space                 : YUV
Chroma subsampling          : 4:2:0
Bit depth                   : 8 bits
Scan type                   : Progressive
Bits/(Pixel*Frame)          : 0.052
Stream size                 : 1.01 GiB (92%)
Writing library             : Zencoder Video Encoding System
Encoded date                : UTC 2017-11-22 09:10:06
Tagged date                 : UTC 2017-11-22 09:28:55
Color range                 : Limited
Color primaries             : BT.709
Transfer characteristics    : BT.709
Matrix coefficients         : BT.709

Audio
ID                          : 2
Format                      : AAC
Format/Info                 : Advanced Audio Codec
Format profile              : LC
Codec ID                    : mp4a-40-2
Duration                    : 2 h 1 min
Bit rate mode               : Variable
Bit rate                    : 96.0 kb/s
Maximum bit rate            : 118 kb/s
Channel(s)                  : 2 channels
Channel positions           : Front: L R
Sampling rate               : 48.0 kHz
Frame rate                  : 46.875 FPS (1024 SPF)
Compression mode            : Lossy
Stream size                 : 83.3 MiB (7%)
Encoded date                : UTC 2017-11-22 08:50:24
Tagged date                 : UTC 2017-11-22 09:28:55

 
 
 
 
 
[/align]
Category:Movies > South Dub
Lang:Hindi
Total Size:1.10 GB
Info Hash:077c6c7a2cfba627287fe81083d4961db162ce9a
Added By:TeamJio
Date Added:02-01-2018 12:39:54
Downloads:141

Download Torrent

Ratings:Not Yet Rated (Log in to rate it)


Tracker:
udp://tracker.coppersurfer.tk:6969/announce


File List: 


Comments

No comments still posted

Powered by 10 Hamsters v2-svn -|- Page Generated In 1.227196 secs.
-|- RSS Feed -|- Feed Info
Theme By: Nikkbu