Trackback-URL | Mr. Nice Guy / Добро момче (1997) | Mischief and the Masters (Masters of the Sh


Login
Username:
Password:
[Signup]
[Recover Account]


Browse Torrents

Poll


You must be logged in to view polls



Torrent Details For "Bhairava (2017) Hindi Dubbed Untouched WEBHD Team Jio Exclusive"

Bhairava (2017) Hindi Dubbed Untouched WEBHD Team Jio Exclusive

Download this torrent | Magnet Download
Health:
Seeds: 0
Leechers: 1
Completed:
Last Checked: 05-01-2018 16:07:15
External Torrent
Update Stats


Watch-Free-HD     Download

Poster


iMDB
Imdb Picture Title: Bairavaa
Year: 2017
Runtime: 169 minutes
Votes: 4717
Rating: 6.5/10
Language: Tamil
Country: India
All Genres: Action
Plot Outline: A kind-hearted bank officer decides to step in when an unscrupulous businessman tries to stop a college student from revealing the truth about his immoral activities.
Director: Bharathan
Writing By: Bharathan,
Produced By: Manu Kumaran,B. Bharathi Reddy,
Music: Santhosh Narayanan
Plot:

It is an action-thriller, which revolves around an ordinary man who takes up his girlfriend's fight for the justice against unscrupulous, depraved man who had created a Multi Million Dollar business by deceiving ambitious Medical students and their parents.

- Written by Ajith Richard

A kind-hearted bank officer decides to step in when an unscrupulous businessman tries to stop a college student from revealing the truth about his immoral activities.

- Written by jkavi2804
Cast:
Joseph Vijay as Bhairava
Keerthi Suresh as Malarvizhi
Jagapathi Babu as P . k
Daniel Balaji as
Thambi Ramayya as Narayanan
Sathish as Shanmugam
Y.G. Mahendran as
Naren as
Harish Uthaman as
Sija Rose as


Watch-Free-HD     Download

Details
Name:Bhairava (2017) Hindi Dubbed Untouched WEBHD Team Jio Exclusive
Description:


Quote:

Format                      : MPEG-4
Format profile              : Base Media
Codec ID                    : isom (isom/avc1/mp42)
File size                   : 1.26 GiB
Duration                    : 2 h 18 min
Overall bit rate mode       : Variable
Overall bit rate            : 1 297 kb/s
Encoded date                : UTC 2017-09-22 12:26:48
Tagged date                 : UTC 2017-09-22 12:26:48

Video
ID                          : 1
Format                      : AVC
Format/Info                 : Advanced Video Codec
Format profile              : [email protected]
Format settings             : CABAC / 4 Ref Frames
Format settings, CABAC      : Yes
Format settings, ReFrames   : 4 frames
Format settings, GOP        : M=3, N=25
Codec ID                    : avc1
Codec ID/Info               : Advanced Video Coding
Duration                    : 2 h 18 min
Bit rate                    : 1 197 kb/s
Maximum bit rate            : 3 292 kb/s
Width                       : 1 280 pixels
Height                      : 720 pixels
Display aspect ratio        : 16:9
Frame rate mode             : Constant
Frame rate                  : 25.000 FPS
Color space                 : YUV
Chroma subsampling          : 4:2:0
Bit depth                   : 8 bits
Scan type                   : Progressive
Bits/(Pixel*Frame)          : 0.052
Stream size                 : 1.16 GiB (92%)
Writing library             : Zencoder Video Encoding System
Encoded date                : UTC 2017-09-22 11:59:54
Tagged date                 : UTC 2017-09-22 12:27:01
Color range                 : Limited
Color primaries             : BT.709
Transfer characteristics    : BT.709
Matrix coefficients         : BT.709

Audio
ID                          : 2
Format                      : AAC
Format/Info                 : Advanced Audio Codec
Format profile              : LC
Codec ID                    : mp4a-40-2
Duration                    : 2 h 18 min
Bit rate mode               : Variable
Bit rate                    : 96.0 kb/s
Maximum bit rate            : 114 kb/s
Channel(s)                  : 2 channels
Channel positions           : Front: L R
Sampling rate               : 48.0 kHz
Frame rate                  : 46.875 FPS (1024 SPF)
Compression mode            : Lossy
Stream size                 : 95.2 MiB (7%)
Encoded date                : UTC 2017-09-22 11:35:07
Tagged date                 : UTC 2017-09-22 12:27:01

   

   

Category:Movies > South Dub
Lang:Hindi
Total Size:1.26 GB
Info Hash:573df6387abc02256c065c159c65179cc3eb12fd
Added By:TeamJio
Date Added:01-01-2018 14:34:18
Downloads:341

Download Torrent

Ratings:Not Yet Rated (Log in to rate it)


Tracker:
udp://tracker.coppersurfer.tk:6969/announce


File List: 


Comments

No comments still posted

Powered by 10 Hamsters v2-svn -|- Page Generated In 1.081007 secs.
-|- RSS Feed -|- Feed Info
Theme By: Nikkbu