Finances personnelles | South Park | Informal Essay Topics


Login
Username:
Password:
[Signup]
[Recover Account]


Browse Torrents

Poll


You must be logged in to view polls



Torrent Details For "Hogi Pyar Ki Jeet (1999) Untouched WEBDl Team Jio Exclusive"

Hogi Pyar Ki Jeet (1999) Untouched WEBDl Team Jio Exclusive

Download this torrent | Magnet Download
Health:
Seeds: 0
Leechers: 33
Completed:
Last Checked: 01-01-2018 14:34:29
External Torrent
Update Stats


Watch-Free-HD     Download

Poster


Watch-Free-HD     Download

Details
Name:Hogi Pyar Ki Jeet (1999) Untouched WEBDl Team Jio Exclusive
Description:


Quote:

Format                      : MPEG-4
Format profile              : Base Media
Codec ID                    : isom (isom/iso2/avc1/mp41)
File size                   : 931 MiB
Duration                    : 2 h 29 min
Overall bit rate            : 868 kb/s
Writing application         : Lavf55.21.102

Video
ID                          : 1
Format                      : AVC
Format/Info                 : Advanced Video Codec
Format profile              : [email protected]
Format settings             : 3 Ref Frames
Format settings, CABAC      : No
Format settings, ReFrames   : 3 frames
Codec ID                    : avc1
Codec ID/Info               : Advanced Video Coding
Duration                    : 2 h 29 min
Bit rate                    : 800 kb/s
Width                       : 852 pixels
Height                      : 480 pixels
Display aspect ratio        : 16:9
Frame rate mode             : Constant
Frame rate                  : 24.000 FPS
Color space                 : YUV
Chroma subsampling          : 4:2:0
Bit depth                   : 8 bits
Scan type                   : Progressive
Bits/(Pixel*Frame)          : 0.082
Stream size                 : 858 MiB (92%)
Writing library             : x264 core 140 r2377 1ca7bb9
Encoding settings           : cabac=0 / ref=3 / deblock=1:0:0 / analyse=0x1:0x111 / me=hex / subme=7 / psy=1 / psy_rd=1.00:0.00 / mixed_ref=1 / me_range=16 / chroma_me=1 / trellis=1 / 8x8dct=0 / cqm=0 / deadzone=21,11 / fast_pskip=1 / chroma_qp_offset=-2 / threads=36 / lookahead_threads=3 / sliced_threads=0 / nr=0 / decimate=1 / interlaced=0 / bluray_compat=0 / constrained_intra=0 / bframes=0 / weightp=0 / keyint=250 / keyint_min=24 / scenecut=40 / intra_refresh=0 / rc_lookahead=40 / rc=2pass / mbtree=1 / bitrate=800 / ratetol=1.0 / qcomp=0.60 / qpmin=0 / qpmax=69 / qpstep=4 / cplxblur=20.0 / qblur=0.5 / ip_ratio=1.40 / aq=1:1.00

Audio
ID                          : 2
Format                      : AAC
Format/Info                 : Advanced Audio Codec
Format profile              : LC
Codec ID                    : mp4a-40-2
Duration                    : 2 h 29 min
Duration_LastFrame          : -9 ms
Bit rate mode               : Constant
Bit rate                    : 64.0 kb/s
Channel(s)                  : 2 channels
Channel positions           : Front: L R
Sampling rate               : 48.0 kHz
Frame rate                  : 46.875 FPS (1024 SPF)
Compression mode            : Lossy
Stream size                 : 68.7 MiB (7%)
Language                    : English
Default                     : Yes
Alternate group             : 1

 

   

   

Category:Movies > Bollywood
Lang:Hindi
Total Size:931.22 MB
Info Hash:da88d8ed6a67e272399fe72f8581b77b17927e35
Added By:TeamJio
Date Added:01-01-2018 10:31:06
Downloads:403

Download Torrent

Ratings:Not Yet Rated (Log in to rate it)


Tracker:
udp://tracker.coppersurfer.tk:6969/announce


File List: 


Comments

No comments still posted

Powered by 10 Hamsters v2-svn -|- Page Generated In 1.214435 secs.
-|- RSS Feed -|- Feed Info
Theme By: Nikkbu