Login
Username:
Password:
[Signup]
[Recover Account]


Browse Torrents

Poll


You must be logged in to view polls



Latest Torrents
Ghost.Adventures.S...
- [Size: 1.01 GB]

Beirut.2018.720p.W...
- [Size: 771.53 MB]

Ransom.S02E11.HDTV...
- [Size: 267.24 MB]

Ransom.S02E11.720p...
- [Size: 933.77 MB]

Taken.2017.S02E15....
- [Size: 212.09 MB]


Torrent Details For "Kalari Kids (2017) EP 01-06 Untouched 1080p WEBHD Team Jio Excluisve"

Kalari Kids (2017) EP 01-06 Untouched 1080p WEBHD Team Jio Excluisve

Download this torrent | Magnet Download
Health:
Seeds: 0
Leechers: 0
Completed:
Last Checked: 22-06-2018 20:45:39
External Torrent
Update Stats


Watch-Free-HD     Download

Poster


Watch-Free-HD     Download

Details
Name:Kalari Kids (2017) EP 01-06 Untouched 1080p WEBHD Team Jio Excluisve
Description:


Quote:

Format                      : MPEG-4
Format profile              : Base Media
Codec ID                    : isom (isom/iso2/avc1/mp41)
File size                   : 1 000 MiB
Duration                    : 12 min 20 s
Overall bit rate mode       : Variable
Overall bit rate            : 11.3 Mb/s
Writing application         : Lavf57.84.100

Video
ID                          : 1
Format                      : AVC
Format/Info                 : Advanced Video Codec
Format profile              : [email protected]
Format settings             : CABAC / 2 Ref Frames
Format settings, CABAC      : Yes
Format settings, ReFrames   : 2 frames
Codec ID                    : avc1
Codec ID/Info               : Advanced Video Coding
Duration                    : 12 min 20 s
Bit rate mode               : Variable
Bit rate                    : 11.2 Mb/s
Maximum bit rate            : 40.0 Mb/s
Width                       : 1 920 pixels
Height                      : 1 080 pixels
Display aspect ratio        : 16:9
Frame rate mode             : Constant
Frame rate                  : 60.000 FPS
Color space                 : YUV
Chroma subsampling          : 4:2:0
Bit depth                   : 8 bits
Scan type                   : Progressive
Bits/(Pixel*Frame)          : 0.090
Stream size                 : 987 MiB (99%)
Color range                 : Full
Matrix coefficients         : BT.709

Audio
ID                          : 2
Format                      : AAC
Format/Info                 : Advanced Audio Codec
Format profile              : LC
Codec ID                    : mp4a-40-2
Duration                    : 12 min 20 s
Bit rate mode               : Constant
Bit rate                    : 132 kb/s
Channel(s)                  : 2 channels
Channel positions           : Front: L R
Sampling rate               : 48.0 kHz
Frame rate                  : 46.875 FPS (1024 SPF)
Compression mode            : Lossy
Stream size                 : 11.6 MiB (1%)
Title                       : simple_aac_recording
Default                     : Yes
Alternate group             : 1
ep 02
Format                      : MPEG-4
Format profile              : Base Media
Codec ID                    : isom (isom/iso2/avc1/mp41)
File size                   : 1.18 GiB
Duration                    : 13 min 14 s
Overall bit rate mode       : Variable
Overall bit rate            : 12.8 Mb/s
Writing application         : Lavf57.84.100

Video
ID                          : 1
Format                      : AVC
Format/Info                 : Advanced Video Codec
Format profile              : [email protected]
Format settings             : CABAC / 2 Ref Frames
Format settings, CABAC      : Yes
Format settings, ReFrames   : 2 frames
Codec ID                    : avc1
Codec ID/Info               : Advanced Video Coding
Duration                    : 13 min 14 s
Bit rate mode               : Variable
Bit rate                    : 12.6 Mb/s
Maximum bit rate            : 40.0 Mb/s
Width                       : 1 920 pixels
Height                      : 1 080 pixels
Display aspect ratio        : 16:9
Frame rate mode             : Constant
Frame rate                  : 60.000 FPS
Color space                 : YUV
Chroma subsampling          : 4:2:0
Bit depth                   : 8 bits
Scan type                   : Progressive
Bits/(Pixel*Frame)          : 0.102
Stream size                 : 1.17 GiB (99%)
Color range                 : Full
Matrix coefficients         : BT.709

Audio
ID                          : 2
Format                      : AAC
Format/Info                 : Advanced Audio Codec
Format profile              : LC
Codec ID                    : mp4a-40-2
Duration                    : 13 min 14 s
Bit rate mode               : Constant
Bit rate                    : 132 kb/s
Channel(s)                  : 2 channels
Channel positions           : Front: L R
Sampling rate               : 48.0 kHz
Frame rate                  : 46.875 FPS (1024 SPF)
Compression mode            : Lossy
Stream size                 : 12.5 MiB (1%)
Title                       : simple_aac_recording
Default                     : Yes
Alternate group             : 1

ep 03

Format                      : MPEG-4
Format profile              : Base Media
Codec ID                    : isom (isom/iso2/avc1/mp41)
File size                   : 862 MiB
Duration                    : 13 min 6 s
Overall bit rate mode       : Variable
Overall bit rate            : 9 202 kb/s
Writing application         : Lavf57.84.100

Video
ID                          : 1
Format                      : AVC
Format/Info                 : Advanced Video Codec
Format profile              : [email protected]
Format settings             : CABAC / 2 Ref Frames
Format settings, CABAC      : Yes
Format settings, ReFrames   : 2 frames
Codec ID                    : avc1
Codec ID/Info               : Advanced Video Coding
Duration                    : 13 min 6 s
Bit rate mode               : Variable
Bit rate                    : 9 058 kb/s
Maximum bit rate            : 40.0 Mb/s
Width                       : 1 920 pixels
Height                      : 1 080 pixels
Display aspect ratio        : 16:9
Frame rate mode             : Constant
Frame rate                  : 60.000 FPS
Color space                 : YUV
Chroma subsampling          : 4:2:0
Bit depth                   : 8 bits
Scan type                   : Progressive
Bits/(Pixel*Frame)          : 0.073
Stream size                 : 849 MiB (98%)
Color range                 : Full
Matrix coefficients         : BT.709

Audio
ID                          : 2
Format                      : AAC
Format/Info                 : Advanced Audio Codec
Format profile              : LC
Codec ID                    : mp4a-40-2
Duration                    : 13 min 6 s
Bit rate mode               : Constant
Bit rate                    : 132 kb/s
Channel(s)                  : 2 channels
Channel positions           : Front: L R
Sampling rate               : 48.0 kHz
Frame rate                  : 46.875 FPS (1024 SPF)
Compression mode            : Lossy
Stream size                 : 12.3 MiB (1%)
Title                       : simple_aac_recording
Default                     : Yes
Alternate group             : 1

EP 04

Format                      : MPEG-4
Format profile              : Base Media
Codec ID                    : isom (isom/iso2/avc1/mp41)
File size                   : 1.21 GiB
Duration                    : 13 min 14 s
Overall bit rate mode       : Variable
Overall bit rate            : 13.1 Mb/s
Writing application         : Lavf57.84.100

Video
ID                          : 1
Format                      : AVC
Format/Info                 : Advanced Video Codec
Format profile              : [email protected]
Format settings             : CABAC / 2 Ref Frames
Format settings, CABAC      : Yes
Format settings, ReFrames   : 2 frames
Codec ID                    : avc1
Codec ID/Info               : Advanced Video Coding
Duration                    : 13 min 14 s
Bit rate mode               : Variable
Bit rate                    : 12.9 Mb/s
Maximum bit rate            : 40.0 Mb/s
Width                       : 1 920 pixels
Height                      : 1 080 pixels
Display aspect ratio        : 16:9
Frame rate mode             : Constant
Frame rate                  : 60.000 FPS
Color space                 : YUV
Chroma subsampling          : 4:2:0
Bit depth                   : 8 bits
Scan type                   : Progressive
Bits/(Pixel*Frame)          : 0.104
Stream size                 : 1.20 GiB (99%)
Color range                 : Full
Matrix coefficients         : BT.709

Audio
ID                          : 2
Format                      : AAC
Format/Info                 : Advanced Audio Codec
Format profile              : LC
Codec ID                    : mp4a-40-2
Duration                    : 13 min 14 s
Bit rate mode               : Constant
Bit rate                    : 132 kb/s
Channel(s)                  : 2 channels
Channel positions           : Front: L R
Sampling rate               : 48.0 kHz
Frame rate                  : 46.875 FPS (1024 SPF)
Compression mode            : Lossy
Stream size                 : 12.5 MiB (1%)
Title                       : simple_aac_recording
Default                     : Yes
Alternate group             : 1


EP 05

Format                      : MPEG-4
Format profile              : Base Media
Codec ID                    : isom (isom/iso2/avc1/mp41)
File size                   : 1.34 GiB
Duration                    : 13 min 12 s
Overall bit rate mode       : Variable
Overall bit rate            : 14.5 Mb/s
Writing application         : Lavf57.84.100

Video
ID                          : 1
Format                      : AVC
Format/Info                 : Advanced Video Codec
Format profile              : [email protected]
Format settings             : CABAC / 2 Ref Frames
Format settings, CABAC      : Yes
Format settings, ReFrames   : 2 frames
Codec ID                    : avc1
Codec ID/Info               : Advanced Video Coding
Duration                    : 13 min 12 s
Bit rate mode               : Variable
Bit rate                    : 14.4 Mb/s
Maximum bit rate            : 40.0 Mb/s
Width                       : 1 920 pixels
Height                      : 1 080 pixels
Display aspect ratio        : 16:9
Frame rate mode             : Constant
Frame rate                  : 60.000 FPS
Color space                 : YUV
Chroma subsampling          : 4:2:0
Bit depth                   : 8 bits
Scan type                   : Progressive
Bits/(Pixel*Frame)          : 0.115
Stream size                 : 1.32 GiB (99%)
Color range                 : Full
Matrix coefficients         : BT.709

Audio
ID                          : 2
Format                      : AAC
Format/Info                 : Advanced Audio Codec
Format profile              : LC
Codec ID                    : mp4a-40-2
Duration                    : 13 min 12 s
Bit rate mode               : Constant
Bit rate                    : 132 kb/s
Channel(s)                  : 2 channels
Channel positions           : Front: L R
Sampling rate               : 48.0 kHz
Frame rate                  : 46.875 FPS (1024 SPF)
Compression mode            : Lossy
Stream size                 : 12.4 MiB (1%)
Title                       : simple_aac_recording
Default                     : Yes
Alternate group             : 1


EP 06

Format                      : MPEG-4
Format profile              : Base Media
Codec ID                    : isom (isom/iso2/avc1/mp41)
File size                   : 891 MiB
Duration                    : 12 min 37 s
Overall bit rate mode       : Variable
Overall bit rate            : 9 864 kb/s
Writing application         : Lavf57.84.100

Video
ID                          : 1
Format                      : AVC
Format/Info                 : Advanced Video Codec
Format profile              : [email protected]
Format settings             : CABAC / 2 Ref Frames
Format settings, CABAC      : Yes
Format settings, ReFrames   : 2 frames
Codec ID                    : avc1
Codec ID/Info               : Advanced Video Coding
Duration                    : 12 min 37 s
Bit rate mode               : Variable
Bit rate                    : 9 720 kb/s
Maximum bit rate            : 40.0 Mb/s
Width                       : 1 920 pixels
Height                      : 1 080 pixels
Display aspect ratio        : 16:9
Frame rate mode             : Constant
Frame rate                  : 60.000 FPS
Color space                 : YUV
Chroma subsampling          : 4:2:0
Bit depth                   : 8 bits
Scan type                   : Progressive
Bits/(Pixel*Frame)          : 0.078
Stream size                 : 878 MiB (99%)
Color range                 : Full
Matrix coefficients         : BT.709

Audio
ID                          : 2
Format                      : AAC
Format/Info                 : Advanced Audio Codec
Format profile              : LC
Codec ID                    : mp4a-40-2
Duration                    : 12 min 37 s
Bit rate mode               : Constant
Bit rate                    : 132 kb/s
Channel(s)                  : 2 channels
Channel positions           : Front: L R
Sampling rate               : 48.0 kHz
Frame rate                  : 46.875 FPS (1024 SPF)
Compression mode            : Lossy
Stream size                 : 11.9 MiB (1%)
Title                       : simple_aac_recording
Default                     : Yes
Alternate group             : 1

 
 
 
 
 
 
 
 
 
Category:Other > Animation
Lang:Unknown/NA
Total Size:6.42 GB
Info Hash:13c15d5ef20164dfac4c3915d62142b7ab7411d2
Added By:TeamJio
Date Added:31-12-2017 14:25:15
Downloads:302

Download Torrent

Ratings:Not Yet Rated (Log in to rate it)


Tracker:
http://Downloadhd.com/announce.php


File List: 


Comments

<< Previous      Next >>
1 - 1

[Report] Posted: 31-12-2017 at 15:45:53
dineshrathod



Uploaded: 0.00 B
Downloaded: 0.00 B
Ratio: ---

please upload in small size

1 - 1
<< Previous      Next >>


Powered by 10 Hamsters v2-svn -|- Page Generated In 1.944743 secs.
-|- RSS Feed -|- Feed Info
Theme By: Nikkbu