Login
Username:
Password:
[Signup]
[Recover Account]


Browse Torrents

Poll


You must be logged in to view polls



Latest Torrents
Andover (2018) 720...
- [Size: 731.97 MB]

Just.for.Laughs.Al...
- [Size: 421.89 MB]

The First Purge 20...
- [Size: 985.32 MB]

Unforgotten.S03E02...
- [Size: 230.99 MB]

Just.for.Laughs.Al...
- [Size: 393.00 MB]


Torrent Details For "Annabelle Creation 2017 720p Esub BluRay Dual Audio English Hindi GOPISAHI"

Annabelle Creation 2017 720p Esub BluRay Dual Audio English Hindi GOPISAHI

Download this torrent | Magnet Download
Health:
Seeds: 759
Leechers: 1,385
Completed: 646 
Last Checked: 08-12-2017 17:32:38
External Torrent
Update Stats


Watch-Free-HD     Download

Poster


iMDB
Imdb Picture Title: Annabelle: Creation
Year: 2017
Runtime: 109 minutes
Votes: 6749
Rating: 7.3/10
Language: English
Country: USA
All Genres: Horror, Mystery, Thriller
Plot Outline: Several years after the tragic death of their little girl, a dollmaker and his wife welcome a nun and several girls from a shuttered orphanage into their home, soon becoming the target of the dollmaker's possessed creation, Annabelle.
Tagline: You don't know the real story
Director: David F. Sandberg
Writing By: Gary Dauberman,
Produced By: Walter Hamada,Michelle Morrissey,Dave Neustadter,Hans Ritter,Peter Safran,James Wan,
Music: Benjamin Wallfisch
Plot:

Several years after the tragic death of their little girl, a dollmaker and his wife welcome a nun and several girls from a shuttered orphanage into their home, soon becoming the target of the dollmaker's possessed creation, Annabelle.


Cast:
Stephanie Sigman as Sister Charlotte
Talitha Bateman as Janice
Lulu Wilson as Linda
Miranda Otto as Esther Mullins
Anthony LaPaglia as Samuel Mullins
Alicia Vela-Bailey as Evil Mrs Mullins
Grace Fulton as Carol
Samara Lee as Bee Mullins
Philippa Coulthard as Nancy
Joseph Bishara as Annabelle Demon
Trailers:
Official Trailer #2
Official Trailer
Announcement Trailer


Watch-Free-HD     Download

Details
Name:Annabelle Creation 2017 720p Esub BluRay Dual Audio English Hindi GOPISAHI
Description:
Not Hindi audio cam rip chek sample in torrent


Format                         : Matroska
Format version                 : Version 4 / Version 2
File size                      : 449 MiB
Duration                       : 1 h 49 min
Overall bit rate               : 573 kb/s
Movie name                     : Annabelle Creation 2017 GOPISAHI

Video
Format                         : AVC
Codec ID                       : V_MPEG4/ISO/AVC
Duration                       : 1 h 49 min
Bit rate                       : 400 kb/s
Width                          : 1 280 pixels
Height                         : 534 pixels
Display aspect ratio           : 2.40:1
Frame rate mode                : Constant
Frame rate                     : 23.976 (24000/1001) FPS
Stream size                    : 314 MiB (70%)
Writing library                : x264

Audio #1
Format                         : AAC
Duration                       : 1 h 49 min
Bit rate                       : 76.7 kb/s
Channel(s)                     : 6 channels
Channel positions              : Front: L C R, Side: L R, LFE
Sampling rate                  : 44.1 kHz
Frame rate                     : 43.066 FPS (1024 SPF)
Stream size                    : 60.2 MiB (13%)
Language                       : English

Audio #2
Format                         : AAC
Duration                       : 1 h 49 min
Bit rate                       : 93.4 kb/s
Channel(s)                     : 2 channels
Channel positions              : Front: L R
Sampling rate                  : 48.0 kHz
Frame rate                     : 46.875 FPS (1024 SPF)
Stream size                    : 73.1 MiB (16%)
Language                       : Hindi

Text
Language                       : English


Category:Movies > Hollywood Dub
Lang:Hindi
Total Size:453.88 MB
Info Hash:315928c9da8098ec383ac0b9af93af1060b1dc33
Added By:gopisahi
Date Added:08-12-2017 11:18:19
Downloads:429

Download Torrent

Ratings:Not Yet Rated (Log in to rate it)


Tracker:
http://ipv4.tracker.harry.lu/announce

This Torrent also has backup trackers
URLSeedersLeechersCompleted
http://ipv4.tracker.harry.lu/announce91188123
http://ipv4.tracker.harry.lu:80/announce91188123
http://163.172.180.68:80/announce91188123
http://t.nyaatracker.com/announce000
http://tracker.devil-torrents.pl:80/announce000
http://tracker.devil-torrents.pl/announce000
http://open.kickasstracker.com/announce982210
http://163.172.180.68/announce91187123
http://t.nyaatracker.com:80/announce000
http://retracker.mgts.by:80/announce9110836
http://45.33.11.224/announce000
http://tracker.torrentyorg.pl:80/announce981310
http://pt.lax.mx:80/announce000


File List: 


Comments

No comments still posted

Powered by 10 Hamsters v2-svn -|- Page Generated In 0.833880 secs.
-|- RSS Feed -|- Feed Info
Theme By: Nikkbu