Login
Username:
Password:
[Signup]
[Recover Account]


Browse Torrents

Poll


You must be logged in to view polls



Latest Torrents
Last.Week.Tonight....
- [Size: 213.28 MB]

The.Real.Housewive...
- [Size: 412.94 MB]

Last.Week.Tonight....
- [Size: 664.17 MB]

The.Arrangement.S0...
- [Size: 824.86 MB]

The.Arrangement.S0...
- [Size: 601.09 MB]


Torrent Details For "Madame.2017.720p.WEB-DL.DD5.1.H264.ESub"

Madame.2017.720p.WEB-DL.DD5.1.H264.ESub

Download this torrent | Magnet Download
Health:
Seeds: 0
Leechers: 0
Completed:
Last Checked: 07-12-2017 14:14:05
External Torrent
Update Stats


Watch-Free-HD     Download

Poster
No poster


iMDB
Imdb Picture Title: Madame
Year: 2017
Runtime: 91 minutes
Votes: 567
Rating: 6.1/10
Language: English, Spanish, French
Country: France
All Genres: Comedy, Drama
Plot Outline: Adding a little spice to a waning marriage, Anne and Bob, a wealthy and well-connected American couple, move into a manor house in romantic Paris. While preparing a particularly luxurious ...
Director: Amanda Sthers
Writing By: Amanda Sthers,Amanda Sthers,Matthew Robbins,Amanda Sthers,
Produced By: Cyril Colbeau-Justin,Matthew Gledhill,Didier Lupfer,Alain Pancrazi,
Music: Matthieu Gonet
Cast:
Toni Collette as Anne Fredericks
Harvey Keitel as Bob Fredericks
Rossy de Palma as Maria
Michael Smiley as David Morgan
Tom Hughes as Steven Fredericks
Violaine Gillibert as Hélène Bernard
Stanislas Merhar as Antoine Bernard
Sue Cann as Mandy
Ariane Séguillon as Josiane
Amélie Grace Zhurkin as Rose


Watch-Free-HD     Download

Details
Name:Madame.2017.720p.WEB-DL.DD5.1.H264.ESub
Description:
******************************Thumbnail:**********************

 

******************************Screenshots:********************

 Screen 1


 Screen 2


 Screen 3


 Screen 4


 Screen 5

****************************************************************

General
Complete name                            : Madame.2017.720p.WEB-DL.DD5.1.H264.ESub.mp4
Format                                   : MPEG-4
Format profile                           : Base Media
Codec ID                                 : isom (isom/iso2/avc1/mp41)
File size                                : 1.33 GiB
Duration                                 : 1 h 31 min
Overall bit rate                         : 2 094 kb/s
Writing application                      : Lavf57.56.101

Video
ID                                       : 1
Format                                   : AVC
Format/Info                              : Advanced Video Codec
Format profile                           : [email protected]
Format settings                          : CABAC / 4 Ref Frames
Format settings, CABAC                   : Yes
Format settings, RefFrames               : 4 frames
Codec ID                                 : avc1
Codec ID/Info                            : Advanced Video Coding
Duration                                 : 1 h 31 min
Bit rate                                 : 2 000 kb/s
Width                                    : 1 280 pixels
Height                                   : 536 pixels
Display aspect ratio                     : 2.40:1
Frame rate mode                          : Constant
Frame rate                               : 24.000 FPS
Color space                              : YUV
Chroma subsampling                       : 4:2:0
Bit depth                                : 8 bits
Scan type                                : Progressive
Bits/(Pixel*Frame)                       : 0.121
Stream size                              : 1.25 GiB (94%)
Language                                 : English

Audio
ID                                       : 2
Format                                   : AC-3
Format/Info                              : Audio Coding 3
Codec ID                                 : ac-3
Duration                                 : 1 h 31 min
Bit rate mode                            : Constant
Bit rate                                 : 128 kb/s
Channel(s)                               : 2 channels
Channel positions                        : Front: L R
Sampling rate                            : 48.0 kHz
Frame rate                               : 31.250 FPS (1536 SPF)
Bit depth                                : 16 bits
Compression mode                         : Lossy
Stream size                              : 83.5 MiB (6%)
Language                                 : English
Service kind                             : Complete Main
Default                                  : Yes
Alternate group                          : 1

Category:Movies > WEB-HD
Lang:English  English
Total Size:1.35 GB
Info Hash:de3f8351bccc8c45d705f9fc13a10d9f3f409f0b
Added By:LifeLongg
Date Added:07-12-2017 14:14:05
Downloads:75

Download Torrent

Ratings:Not Yet Rated (Log in to rate it)


Tracker:
udp://tracker.openbittorrent.com:80/announce


File List: 


Comments

No comments still posted

Powered by 10 Hamsters v2-svn -|- Page Generated In 0.023359 secs.
-|- RSS Feed -|- Feed Info
Theme By: Nikkbu