Broken and Screwed 2 | Câu Chuyện Lý Tiểu Long: Sự Ra Đời Của Rồng Birth of the Dragon 95 phút CAM-Vietsub+Thuyết minh | Байки Митяя


Login
Username:
Password:
[Signup]
[Recover Account]


Browse Torrents

Poll


You must be logged in to view polls



Torrent Details For "Fire With Fire 2012 ESubs Dual Audio English Hindi 720p BluRay 800mb"

Fire With Fire 2012 ESubs Dual Audio English Hindi 720p BluRay 800mb

Download this torrent | Magnet Download
Health:
Seeds: 0
Leechers: 10
Completed:
Last Checked: 04-12-2017 10:15:00
External Torrent
Update Stats


Watch-Free-HD     Download

Poster


iMDB
Imdb Picture Title: Fire with Fire
Year: 2012
Runtime: 97 minutes
Votes: 22343
Rating: 5.7/10
Language: English
Country: USA
All Genres: Action, Crime, Drama, Thriller
Plot Outline: A fireman takes an unexpected course of action when a man whom he's been ordered to testify against, after being held up at a local convenience store, threatens him.
Tagline: Revenge has its own set of rules.
Director: David Barrett
Writing By: Tom O'Connor,Lowell Cauffiel,
Produced By: 50 Cent,Brandt Andersen,Ryan S. Black,Martin Blencowe,Michael Blencowe,Michael Botti,Barry Brooker,Remington Chase,Michael Corso,Christian de Gallegos,Andrew Deane,Nadine DeBarros,Randall Emmett,Frederick U. Fierst,Zev Foreman,Ted Fox,George Furla,Gus Furla,James Gibb,Brett Granstaff,Brandon Grimes,Anthony Gudas,Richard Jackson,Corey Large,Jenn Lee,Fredrik Malmberg,Stepan Martirosyan,Vance Owen,Matthew Rhodes,Jeff Rice,Scott Robinson,Kevin Robl,Jess Rosenthal,Brian Sacks,William B. Steakley,Mark Stewart,Daniel Wagner,Stan Wertlieb,
Music: Trevor Morris
Cast:
Josh Duhamel as Jeremy Coleman
Bruce Willis as Mike Cella
Rosario Dawson as Talia Durham
Vincent D'Onofrio as David Hagan
50 Cent as Lamar
Julian McMahon as Robert
Vinnie Jones as Boyd
Arie Verveen as Darren
Eric Winter as Adam
Bonnie Somerville as Karen Westlake
Trailers:
International Version
Fire with Fire
U.S. Version


Watch-Free-HD     Download

Details
Name:Fire With Fire 2012 ESubs Dual Audio English Hindi 720p BluRay 800mb
Description:
Format version                 : Version 4 / Version 2

File size                      : 802 MiB

Duration                       : 1 h 37 min

Overall bit rate               : 1 150 kb/s

Movie name                     : Fire With Fire 2012


Video

Format                         : AVC

Codec ID                       : V_MPEG4/ISO/AVC

Duration                       : 1 h 37 min

Bit rate                       : 976 kb/s

Width                          : 1 280 pixels

Height                         : 544 pixels

Display aspect ratio           : 2.35:1

Frame rate mode                : Constant

Frame rate                     : 23.976 (24000/1001) FPS

Stream size                    : 680 MiB (85%)

Writing library                : x264


Audio #1

Format                         : AAC

Duration                       : 1 h 37 min

Bit rate                       : 82.4 kb/s

Channel(s)                     : 6 channels

Channel positions              : Front: L C R, Side: L R, LFE

Sampling rate                  : 44.1 kHz

Frame rate                     : 43.066 FPS (1024 SPF)

Stream size                    : 57.5 MiB (7%)

Title                          : 7starmoviehd

Language                       : English


Audio #2

Format                         : AAC

Duration                       : 1 h 37 min

Bit rate                       : 90.2 kb/s

Channel(s)                     : 6 channels

Channel positions              : Front: L C R, Side: L R, LFE

Sampling rate                  : 44.1 kHz

Frame rate                     : 43.066 FPS (1024 SPF)

Stream size                    : 62.9 MiB (8%)

Title                          : 7starmoviehd

Language                       : Hindi



Text

Language                       : English
Category:Movies > Hollywood Dub
Lang:Hindi
Total Size:802.13 MB
Info Hash:d79d1a4876fb7374fee0488f4ed30355d7b15974
Added By:7starmoviehd
Date Added:04-12-2017 03:28:06
Downloads:173

Download Torrent

Ratings:Not Yet Rated (Log in to rate it)


Tracker:
http://ipv4.tracker.harry.lu/announce

This Torrent also has backup trackers
URLSeedersLeechersCompleted
http://ipv4.tracker.harry.lu/announce000
http://ipv4.tracker.harry.lu:80/announce000
http://163.172.180.68:80/announce000
http://t.nyaatracker.com/announce000
http://tracker.devil-torrents.pl:80/announce000
http://tracker.devil-torrents.pl/announce000
http://open.kickasstracker.com/announce000
http://163.172.180.68/announce000
http://t.nyaatracker.com:80/announce000
http://retracker.mgts.by:80/announce000
http://45.33.11.224/announce000
http://tracker.torrentyorg.pl:80/announce000
http://pt.lax.mx:80/announce000


File List: 


Comments

No comments still posted

Powered by 10 Hamsters v2-svn -|- Page Generated In 0.063919 secs.
-|- RSS Feed -|- Feed Info
Theme By: Nikkbu