Pelis online | Robert Duvall | Duke at Pittsburgh Live Stream - News & Documentaries


Login
Username:
Password:
[Signup]
[Recover Account]


Browse Torrents

Poll


You must be logged in to view polls



Torrent Details For "Psycho.II.1983.1080p.BluRay.X264-AMIABLE"

Psycho.II.1983.1080p.BluRay.X264-AMIABLE

Download this torrent | Magnet Download
Health:
Seeds: 0
Leechers: 37
Completed:
Last Checked: 12-10-2017 14:23:05
External Torrent
Update Stats


Watch-Free-HD     Download

Poster
No poster


iMDB
Imdb Picture Original Title: Psycho II
Title: Psychose II
Year: 1983
Runtime: 113 minutes
Votes: 18350
Rating: 6.4/10
Language: English
Country: USA
All Genres: Crime, Horror, Mystery, Thriller
Plot Outline: After twenty-two years of psychiatric care, Norman Bates attempts to return to a life of solitude, but the specters of his crimes - and his mother - continue to haunt him.
Tagline: The Bates Hotel Is Back In Business!
Director: Richard Franklin
Writing By: Tom Holland,Robert Bloch,
Produced By: Hilton A. Green,Bernard Schwartz,
Music: Jerry Goldsmith
Cast:
Anthony Perkins as Norman Bates
Vera Miles as Lila Loomis
Meg Tilly as Mary Loomis
Robert Loggia as Dr. Bill Raymond
Dennis Franz as Warren Toomey
Hugh Gillin as Sheriff John Hunt
Claudia Bryar as Mrs. Emma Spool
Robert Alan Browne as Ralph Statler
Ben Hartigan as Judge
Lee Garlington as Myrna


Watch-Free-HD     Download

Details
Name:Psycho.II.1983.1080p.BluRay.X264-AMIABLE
Description:
MediaInfo

Video
ID                                       : 1
Format                                   : AVC
Format/Info                              : Advanced Video Codec
Format profile                           : [email protected]
Format settings, CABAC                   : Yes
Format settings, ReFrames                : 4 frames
Codec ID                                 : V_MPEG4/ISO/AVC
Duration                                 : 1 h 52 min
Bit rate                                 : 12.4 Mb/s
Width                                    : 1 920 pixels
Height                                   : 1 040 pixels
Display aspect ratio                     : 1.85:1
Frame rate mode                          : Constant
Frame rate                               : 23.976 (24000/1001) FPS
Color space                              : YUV
Chroma subsampling                       : 4:2:0
Bit depth                                : 8 bits
Scan type                                : Progressive
Bits/(Pixel*Frame)                       : 0.258
Stream size                              : 9.52 GiB (87%)
Writing library                          : x264 core 138 r2358 9e941d1
Encoding settings                        : cabac=1 / ref=4 / deblock=1:-3:-3 / analyse=0x3:0x113 / me=umh / subme=8 / psy=1 / psy_rd=1.00:0.00 / mixed_ref=1 / me_range=16 / chroma_me=1 / trellis=1 / 8x8dct=1 / cqm=0 / deadzone=21,11 / fast_pskip=1 / chroma_qp_offset=-2 / threads=12 / lookahead_threads=2 / sliced_threads=0 / nr=0 / decimate=1 / interlaced=0 / bluray_compat=0 / constrained_intra=0 / bframes=3 / b_pyramid=2 / b_adapt=2 / b_bias=0 / direct=3 / weightb=1 / open_gop=0 / weightp=2 / keyint=240 / keyint_min=24 / scenecut=40 / intra_refresh=0 / rc_lookahead=50 / rc=2pass / mbtree=1 / bitrate=12370 / ratetol=1.0 / qcomp=0.60 / qpmin=0 / qpmax=69 / qpstep=4 / cplxblur=20.0 / qblur=0.5 / ip_ratio=1.40 / aq=1:1.00
Language                                 : English
Default                                  : Yes
Forced                                   : No

Audio
ID                                       : 2
Format                                   : DTS
Format/Info                              : Digital Theater Systems
Mode                                     : 16
Format settings, Endianness              : Big
Codec ID                                 : A_DTS
Duration                                 : 1 h 52 min
Bit rate mode                            : Constant
Bit rate                                 : 1 509 kb/s
Channel(s)                               : 6 channels
Channel positions                        : Front: L C R, Side: L R, LFE
Sampling rate                            : 48.0 kHz
Frame rate                               : 93.750 FPS (512 spf)
Bit depth                                : 24 bits
Compression mode                         : Lossy
Stream size                              : 1.19 GiB (11%)
Language                                 : English
Default                                  : Yes
Forced                                   : No

Text
ID                                       : 3
Format                                   : UTF-8
Codec ID                                 : S_TEXT/UTF8
Codec ID/Info                            : UTF-8 Plain Text
Language                                 : English
Default                                  : No
Forced                                   : No

Menu
00:00:00.000                             : en:00:00:00.000
00:10:44.269                             : en:00:10:44.269
00:18:42.121                             : en:00:18:42.121
00:27:08.627                             : en:00:27:08.627
00:33:28.632                             : en:00:33:28.632
00:42:39.182                             : en:00:42:39.182
00:52:07.750                             : en:00:52:07.750
01:02:04.471                             : en:01:02:04.471
01:14:09.070                             : en:01:14:09.070
01:25:28.749                             : en:01:25:28.749
01:32:42.557                             : en:01:32:42.557
01:40:21.015                             : en:01:40:21.015
Category:Movies > 1080P Bluray
Lang:English  English
Total Size:10.93 GB
Info Hash:60ef72d6719dac34e1409c1a8182e8199f3167a1
Added By:Agent47
Date Added:12-10-2017 14:23:05
Downloads:14

Download Torrent

Ratings:Not Yet Rated (Log in to rate it)


Tracker:
http://tracker.trackerfix.com:80/announce


File List: 


Comments

No comments still posted

Powered by 10 Hamsters v2-svn -|- Page Generated In 0.066268 secs.
-|- RSS Feed -|- Feed Info
Theme By: Nikkbu