Login
Username:
Password:
[Signup]
[Recover Account]


Browse Torrents

Poll


You must be logged in to view polls



Latest Torrents
Me.Myself.and.I.S0...
- [Size: 468.16 MB]

Me.Myself.and.I.S0...
- [Size: 138.29 MB]

No.Stone.Unturned....
- [Size: 903.51 MB]

Casualty.S32E42.HD...
- [Size: 301.00 MB]

Various Artists - ...
- [Size: 231.66 MB]


Torrent Details For "Psycho.1998.1080p.BluRay.x264-PSYCHD"

Psycho.1998.1080p.BluRay.x264-PSYCHD

Download this torrent | Magnet Download
Health:
Seeds: 0
Leechers: 32
Completed:
Last Checked: 12-10-2017 14:22:37
External Torrent
Update Stats


Watch-Free-HD     Download

Poster
No poster


iMDB
Imdb Picture Title: Psycho
Year: 1998
Runtime: 105 minutes
Votes: 40007
Rating: 4.6/10
Language: English
Country: USA
All Genres: Horror, Mystery, Thriller
Plot Outline: A young female embezzler arrives at the Bates Motel, which has terrible secrets of its own.
Tagline: A recreation of the nightmare that started it all...
Director: Gus Van Sant
Writing By: Robert Bloch,Joseph Stefano,
Produced By: Brian Grazer,John Marshall,Gus Van Sant,Jim Whitaker,Dany Wolf,
Music: Bernard Herrmann
Cast:
Vince Vaughn as Norman Bates
Anne Heche as Marion Crane
Julianne Moore as Lila Crane
Viggo Mortensen as Sam Loomis
William H. Macy as Milton Arbogast
Robert Forster as Dr. Simon
Philip Baker Hall as Sheriff Chambers
Anne Haney as Mrs. Chambers
Chad Everett as Tom Cassidy
Rance Howard as Mr. Lowery
Trailers:
Psycho


Watch-Free-HD     Download

Details
Name:Psycho.1998.1080p.BluRay.x264-PSYCHD
Description:
MediaInfo

Video
ID                                       : 1
Format                                   : AVC
Format/Info                              : Advanced Video Codec
Format profile                           : [email protected]
Format settings, CABAC                   : Yes
Format settings, ReFrames                : 4 frames
Codec ID                                 : V_MPEG4/ISO/AVC
Duration                                 : 1 h 43 min
Bit rate                                 : 8 848 kb/s
Width                                    : 1 920 pixels
Height                                   : 1 040 pixels
Display aspect ratio                     : 1.85:1
Frame rate mode                          : Constant
Frame rate                               : 23.976 (24000/1001) FPS
Color space                              : YUV
Chroma subsampling                       : 4:2:0
Bit depth                                : 8 bits
Scan type                                : Progressive
Bits/(Pixel*Frame)                       : 0.185
Stream size                              : 6.29 GiB (96%)
Writing library                          : x264 core 144 r2525 40bb568
Encoding settings                        : cabac=1 / ref=4 / deblock=1:-3:-3 / analyse=0x3:0x113 / me=umh / subme=8 / psy=1 / psy_rd=1.00:0.00 / mixed_ref=1 / me_range=16 / chroma_me=1 / trellis=1 / 8x8dct=1 / cqm=0 / deadzone=21,11 / fast_pskip=1 / chroma_qp_offset=-2 / threads=18 / lookahead_threads=3 / sliced_threads=0 / nr=0 / decimate=1 / interlaced=0 / bluray_compat=0 / constrained_intra=0 / bframes=3 / b_pyramid=2 / b_adapt=2 / b_bias=0 / direct=3 / weightb=1 / open_gop=0 / weightp=2 / keyint=240 / keyint_min=24 / scenecut=40 / intra_refresh=0 / rc_lookahead=50 / rc=2pass / mbtree=1 / bitrate=8848 / ratetol=1.0 / qcomp=0.60 / qpmin=0 / qpmax=69 / qpstep=4 / cplxblur=20.0 / qblur=0.5 / ip_ratio=1.40 / aq=1:1.00
Language                                 : English
Default                                  : Yes
Forced                                   : No

Audio
ID                                       : 2
Format                                   : AC-3
Format/Info                              : Audio Coding 3
Format settings, Endianness              : Big
Codec ID                                 : A_AC3
Duration                                 : 1 h 43 min
Bit rate mode                            : Constant
Bit rate                                 : 192 kb/s
Channel(s)                               : 2 channels
Channel positions                        : Front: L R
Sampling rate                            : 48.0 kHz
Frame rate                               : 31.250 FPS (1536 spf)
Bit depth                                : 16 bits
Compression mode                         : Lossy
Stream size                              : 143 MiB (2%)
Language                                 : English
Service kind                             : Complete Main
Default                                  : Yes
Forced                                   : No

Menu
00:00:00.000                             : en:00:00:00.000
00:00:00.375                             : en:00:00:00.375
00:06:42.068                             : en:00:06:42.068
00:22:36.355                             : en:00:22:36.355
00:43:32.985                             : en:00:43:32.985
00:55:56.687                             : en:00:55:56.687
01:09:27.330                             : en:01:09:27.330
01:16:45.351                             : en:01:16:45.351
01:30:26.755                             : en:01:30:26.755
Category:Movies > 1080P Bluray
Lang:English  English
Total Size:6.56 GB
Info Hash:e8f9371998a026724891bd5c4aba66efb945235a
Added By:Agent47
Date Added:12-10-2017 14:22:37
Downloads:26

Download Torrent

Ratings:Not Yet Rated (Log in to rate it)


Tracker:
http://tracker.trackerfix.com:80/announce


File List: 


Comments

No comments still posted

Powered by 10 Hamsters v2-svn -|- Page Generated In 0.233147 secs.
-|- RSS Feed -|- Feed Info
Theme By: Nikkbu