Login
Username:
Password:
[Signup]
[Recover Account]


Browse Torrents

Poll


You must be logged in to view polls



Latest Torrents
Corbin Nash (2018)...
- [Size: 744.98 MB]

I.Had.a.Bloody.Goo...
- [Size: 449.70 MB]

I.Had.a.Bloody.Goo...
- [Size: 3.33 GB]

Home.From.Home.S01...
- [Size: 270.86 MB]

The.City.And.The.C...
- [Size: 265.83 MB]


Torrent Details For "Airlift.2016.[Hindi Video Songs].Untouched BD50. -.Download"

Airlift.2016.[Hindi Video Songs].Untouched BD50. -.Download

Download this torrent | Magnet Download
Health:
Seeds: 0
Leechers: 4
Completed:
Last Checked: 11-03-2018 15:43:42
External Torrent
Update Stats


Watch-Free-HD     Download

Poster


iMDB
Imdb Picture Title: Airlift
Year: 2016
Runtime: 130 minutes
Votes: 41813
Rating: 8.2/10
Language: Hindi, Malayalam, Arabic
Country: India
All Genres: Action, Drama, History
Plot Outline: When Iraq invades Kuwait in August, 1990, a callous Indian businessman becomes the spokesperson for more than 170,000 stranded countrymen.
Tagline: 1,70,000 refugees. 488 flights. 59 days. 1 man
Director: Raja Menon
Writing By: Raja Menon,Ritesh Shah,Suresh Nair,Raja Menon,Rahul Nangia,Ritesh Shah,
Produced By: Monisha Advani,Nikkhil Advani,Aruna Bhatia,Madhu Bhojwani,Hanif Chunawala,Shivaji Dasgupta,Hemraj Dogra,Ajay Kapoor,Bhushan Kumar,Krishan Kumar,Vikram Malhotra,Rameshchandra Yadav,
Music: Arijit Dutta
Cast:
Akshay Kumar as Ranjit Katyal
Nimrat Kaur as Amrita Katyal
Kumud Mishra as Sanjeev Kohli
Prakash Belawadi as George
Inaamulhaq as Major Khalaf Bin Zayd
Lena as George's Wife
Nissar Khan as Ashok
Ninad Kamat as Kurien
Kaizaad Kotwal as Poonawalla
Feryna Wazheir as Tasneem
Trailers:
Official Trailer


Watch-Free-HD     Download

Details
Name:Airlift.2016.[Hindi Video Songs].Untouched BD50. -.Download
Description:
General


Video
Format : AVC
Format profile : [email protected]
Format settings, CABAC : Yes
Format settings, RefFrames : 4 frames
Format settings, GOP : M=3, N=12
Bit rate : 35.0 Mb/s
Width : 1 920 pixels
Height : 1 080 pixels
Display aspect ratio : 16:9
Frame rate : 24.000 FPS
Standard : NTSC
Color space : YUV
Chroma subsampling : 4:2:0
Bit depth : 8 bits
Stream size : 30.9 GiB (93%)

Audio #1
Format : TrueHD / AC-3
Bit rate : 640 kb/s
Maximum bit rate : 8 469 kb/s
Channel(s) : Object Based / 8 channels / 6 channels
Channel positions : Object Based / Front: L C R, Side: L R, Back: L R, LFE / Front: L C R, Side: L R, LFE
Sampling rate : / 48.0 kHz / 48.0 kHz
Frame rate : 31.250 FPS (1536 SPF)
Bit depth : 16 bits
Stream size : 580 MiB (2%)

Audio #2
Format : AC-3
Duration : 2 h 6 min
Bit rate mode : Constant
Bit rate : 640 kb/s
Channel(s) : 6 channels
Channel positions : Front: L C R, Side: L R, LFE
Sampling rate : 48.0 kHz
Frame rate : 31.250 FPS (1536 SPF)
Bit depth : 16 bits
Compression mode : Lossy
Stream size : 580 MiB (2%)

Text
Format : PGS

Note: Subtitle (Include)
Make a donation to help the site if you can
So I and all Uploaders can keep to upload here

Seed for as long as you can

 
 
 
 
 
Category:Music > Bollywood
Lang:Hindi
Total Size:3.79 GB
Info Hash:69b65dc8ae031c60f947004566fcb289f1097c1a
Added By:Download
Date Added:11-10-2017 09:15:21
Downloads:339

Download Torrent

Ratings:Not Yet Rated (Log in to rate it)


Tracker:
http://ipv4.tracker.harry.lu/announce

This Torrent also has backup trackers
URLSeedersLeechersCompleted
http://ipv4.tracker.harry.lu/announce020
http://ipv4.tracker.harry.lu:80/announce020
http://opentracker-milanesi.rhcloud.com/announce000
http://t.nyaatracker.com/announce070
http://tracker.devil-torrents.pl:80/announce080
http://tracker.devil-torrents.pl/announce080
http://open.kickasstracker.com/announce010
http://opentracker-milanesi.rhcloud.com:80/announce000
http://open.kickasstracker.com:443/announce010
http://opentracker-milanesi.rhcloud.com:443/announce000
http://t.nyaatracker.com:80/announce100


File List: 


Comments

No comments still posted

Powered by 10 Hamsters v2-svn -|- Page Generated In 0.690591 secs.
-|- RSS Feed -|- Feed Info
Theme By: Nikkbu